↑↓Torrent.by
Поиск
Логин: Регистрация
Пароль: Восстановить пароль

Однажды в Стокгольме / Stockholm (2018) BDRip 1080p от селезень | D, P | iTunes

Скачать odnazhdy-v-stokgolme-stockholm-2018-bdrip-1080p-ot-selezen-d-p-itunes.torrent
U Магнитная ссылка Размер: 7.25 GB Раздают: 187 Качают: 134 Добавлен: 2019-10-12 13:12:20
Однажды в Стокгольме / Stockholm (2018) BDRip 1080p от селезень | D, P | iTunes

Название: Однажды в Стокгольме
Оригинальное название: Stockholm
Год выхода: 2018
Жанр: Драма, комедия, криминал
Режиссер: Роберт Будро
В ролях: Марк Стронг, Нуми Рапас, Итэн Хоук, Кристофер Хейердал, Би Сантос, Торбьорн Харр, Шанти Рони, Марк Рендалл, Ханнеке Тэлбот, Джон Ралстон

О фильме: История термина «стокгольмский синдром», возникшего после захвата шведского банка в 1973 году. Шесть дней вооруженный грабитель Ян-Эрик Олссон продержал в заложниках четырех сотрудников банка, которые впоследствии встали на его защиту.

Страна: Канада, США
Студия: Darius Films, Lumanity Productions, JoBro Productions & Film Finance
Продолжительность: 01:32:38
Перевод(ы):
#1: Дублированный | iTunes
#2: Профессиональный многоголосый | HDRezka Studio

Качество: BDRip 1080p
Видео: MPEG-4 AVC, 1920x804, 10.0 Mbit/s, 24 fps
Аудио #01: 48 kHz, AC3, 5.1, 384 Kbps | Дублированный | RUS |
Аудио #02: 48 kHz, AC3, 2.0, 192 Kbps | Профессиональный многоголосый | RUS |
Аудио #03: 48 kHz, AC3, 5.1, 640 Kbps | Оригинал | ENG |
Субтитры: Русские (Full), английские

Релиз:
[+] MI
General
Unique ID : 232606562802657341760199526914503310250 (0xAEFE64FB15EC66DA67655BABEB197BAA)
Complete name : D:Video111Stockholm.2018.BDRip.1080p.seleZen.mkv
Format : Matroska
Format version : Version 4
File size : 7.25 GiB
Duration : 1 h 32 min
Overall bit rate : 11.2 Mb/s
Movie name : Stockholm 2018 from селезень
Encoded date : UTC 2019-10-11 17:44:02
Writing application : mkvmerge v22.0.0 ('At The End Of The World') 64-bit
Writing library : libebml v1.3.5 + libmatroska v1.4.8

Video
ID : 1
Format : AVC
Format/Info : Advanced Video Codec
Format profile : High@L4.1
Format settings : CABAC / 5 Ref Frames
Format settings, CABAC : Yes
Format settings, Reference : 5 frames
Codec ID : V_MPEG4/ISO/AVC
Duration : 1 h 32 min
Bit rate : 10 000 kb/s
Width : 1 920 pixels
Height : 804 pixels
Display aspect ratio : 2.40:1
Frame rate mode : Constant
Frame rate : 24.000 FPS
Color space : YUV
Chroma subsampling : 4:2:0
Bit depth : 8 bits
Scan type : Progressive
Bits/(Pixel*Frame) : 0.270
Stream size : 6.47 GiB (89%)
Title : Encoded by seleZen
Writing library : x264 core 148 r2705kMod 3f5ed56
Encoding settings : cabac=1 / ref=5 / deblock=1:-2:-2 / analyse=0x3:0x113 / me=umh / subme=11 / psy=1 / fade_compensate=0.00 / psy_rd=1.00:0.00 / mixed_ref=1 / me_range=32 / chroma_me=1 / trellis=2 / 8x8dct=1 / cqm=0 / deadzone=21,11 / fast_pskip=0 / chroma_qp_offset=-2 / threads=24 / lookahead_threads=6 / sliced_threads=0 / nr=0 / decimate=0 / interlaced=0 / bluray_compat=0 / constrained_intra=0 / fgo=0 / bframes=10 / b_pyramid=2 / b_adapt=2 / b_bias=0 / direct=3 / weightb=1 / open_gop=0 / weightp=2 / keyint=240 / keyint_min=24 / scenecut=40 / intra_refresh=0 / rc_lookahead=50 / rc=2pass / mbtree=0 / bitrate=10000 / ratetol=1.0 / qcomp=0.60 / qpmin=0 / qpmax=51 / qpstep=4 / cplxblur=20.0 / qblur=0.5 / vbv_maxrate=50000 / vbv_bufsize=62500 / nal_hrd=none / filler=0 / ip_ratio=1.40 / pb_ratio=1.30 / aq=3:0.80
Language : English
Default : Yes
Forced : No

Audio #1
ID : 2
Format : AC-3
Format/Info : Audio Coding 3
Commercial name : Dolby Digital
Codec ID : A_AC3
Duration : 1 h 32 min
Bit rate mode : Constant
Bit rate : 384 kb/s
Channel(s) : 6 channels
Channel layout : L R C LFE Ls Rs
Sampling rate : 48.0 kHz
Frame rate : 31.250 FPS (1536 SPF)
Bit depth : 16 bits
Compression mode : Lossy
Stream size : 254 MiB (3%)
Title : Dub [iTunes]
Language : Russian
Service kind : Complete Main
Default : Yes
Forced : Yes

Audio #2
ID : 3
Format : AC-3
Format/Info : Audio Coding 3
Commercial name : Dolby Digital
Codec ID : A_AC3
Duration : 1 h 32 min
Bit rate mode : Constant
Bit rate : 192 kb/s
Channel(s) : 2 channels
Channel layout : L R
Sampling rate : 48.0 kHz
Frame rate : 31.250 FPS (1536 SPF)
Bit depth : 16 bits
Compression mode : Lossy
Stream size : 126 MiB (2%)
Title : MVO [HDRezka Studio]
Language : Russian
Service kind : Complete Main
Default : No
Forced : No

Audio #3
ID : 4
Format : AC-3
Format/Info : Audio Coding 3
Commercial name : Dolby Digital
Codec ID : A_AC3
Duration : 1 h 32 min
Bit rate mode : Constant
Bit rate : 640 kb/s
Channel(s) : 6 channels
Channel layout : L R C LFE Ls Rs
Sampling rate : 48.0 kHz
Frame rate : 31.250 FPS (1536 SPF)
Bit depth : 16 bits
Compression mode : Lossy
Stream size : 424 MiB (6%)
Title : Original
Language : English
Service kind : Complete Main
Default : No
Forced : No

Text #1
ID : 5
Format : UTF-8
Codec ID : S_TEXT/UTF8
Codec ID/Info : UTF-8 Plain Text
Duration : 1 h 26 min
Bit rate : 106 b/s
Count of elements : 1643
Stream size : 67.2 KiB (0%)
Title : Full
Language : Russian
Default : No
Forced : No

Text #2
ID : 6
Format : UTF-8
Codec ID : S_TEXT/UTF8
Codec ID/Info : UTF-8 Plain Text
Duration : 1 h 27 min
Bit rate : 84 b/s
Count of elements : 1964
Stream size : 54.6 KiB (0%)
Title : SDH
Language : English
Default : No
Forced : No

Menu
00:00:00.000 : en:Chapter 01
00:00:50.125 : en:Chapter 02
00:06:34.292 : en:Chapter 03
00:07:46.167 : en:Chapter 04
00:16:47.250 : en:Chapter 05
00:25:39.042 : en:Chapter 06
00:31:16.333 : en:Chapter 07
00:38:48.542 : en:Chapter 08
00:44:37.708 : en:Chapter 09
00:49:57.875 : en:Chapter 10
00:57:19.958 : en:Chapter 11
01:14:37.208 : en:Chapter 12
01:27:02.042 : en:Chapter 13



Скриншоты:
[+] Всего файлов в раздаче - 1:
Stockholm.2018.BDRip.1080p.seleZen.mkv7.25 GB

Показать еще раздачи по запросу однажды:
2019-10-20 U Однажды в России [06х01-13] (2019) WEBRip 720p от Files-x 13.10 GB ↑ 73 ↓ 157
2019-10-12 U Однажды в Стокгольме / Stockholm (2018) BDRip от MegaPeer | iTunes 1.42 GB ↑ 148 ↓ 28
2019-09-19 U Однажды в России [06х01-10] (2019) WEBRip 720p от Files-x 9.93 GB ↑ 50 ↓ 92
2019-09-13 U Однажды в России [06х01-09] (2019) WEBRip 720p от Files-x 8.87 GB ↑ 43 ↓ 78
2019-09-07 U Однажды в России [06х01-09] (2019) WEBRip 720p от Files-x 8.80 GB ↑ 135 ↓ 109
2019-08-22 U Однажды в… Голливуде / Once Upon a Time in... Hollywood (2019) CAMRip | A 2.61 GB ↑ 191 ↓ 43
2019-07-15 U Однажды в Стокгольме / Stockholm (2018) WEB-DLRip от MegaPeer | iTunes 1.46 GB ↑ 261 ↓ 73

Отзывы
Зарегистрируйтесь чтобы добавить комментарий.
Обратная связь
Copyleft ©