↑↓Torrent.by
Поиск
Логин: Регистрация
Пароль: Восстановить пароль

Король Лев / The Lion King (2019) BDRip-HEVC 1080p от селезень | iTunes

Скачать korol-lev-the-lion-king-2019-bdrip-hevc-1080p-ot-selezen-itunes.torrent
U Магнитная ссылка Размер: 6.80 GB Раздают: 580 Качают: 505 Добавлен: 2019-10-12 19:01:26
Король Лев / The Lion King (2019) BDRip-HEVC 1080p от селезень | iTunes

Название: Король Лев
Оригинальное название: The Lion King
Год выхода: 2019
Жанр: Мультфильм, мюзикл, драма, приключения, семейный
Режиссер: Джон Фавро
В ролях: Джеймс Эрл Джонс, Дональд Гловер, Чиветел Эджиофор, Джон Оливер, Джон Кани, Элфри Вудард, Джейдон Маккрэри, Шахади Райт Джозеф, Пенни Джонсон, Кигэн-Майкл Ки

О фильме: Действие фильма разворачивается в африканской саванне и повествует о молодом льве по имени Симба, который потерял своего отца Муфасу из-за своего злобного дяди Шрама и был изгнан из прайда в дальние края пустыни. Годы спустя он возвращается, чтобы вернуть себе трон.

Страна: США
Студия: Walt Disney Pictures, Fairview Entertainment
Продолжительность: 01:58:14
Перевод: Дублированный | iTunes

Качество: BDRip 1080p
Видео: HEVC, x.265, 10 bit, 1920x1080, 7201 Kbit/s, 23.976 fps
Аудио #01: 48 kHz, AC3, 5.1, 384 Kbps | iTunes | RUS |
Аудио #02: 48 kHz, AC3, 5.1, 640 Kbps | Оригинал |  ENG |
Субтитры: Русские (Full, SDH), английские

Релиз:


[+] MI
General
Unique ID                   : 118983199603777940679054876041022718707 (0x598354A8BA7C325B7F5081184292C2F3)
Complete name               : D:Video111The.Lion.King.2019.BDRip.1080p.x265.10bit.seleZen.mkv
Format                      : Matroska
Format version              : Version 4
File size                   : 6.80 GiB
Duration                    : 1 h 58 min
Overall bit rate            : 8 227 kb/s
Movie name                  : The Lion King 2019 from селезень
Encoded date                : UTC 2019-10-12 12:22:37
Writing application         : mkvmerge v22.0.0 ('At The End Of The World') 64-bit
Writing library             : libebml v1.3.5 + libmatroska v1.4.8

Video
ID                          : 1
Format                      : HEVC
Format/Info                 : High Efficiency Video Coding
Format profile              : Main 10@L5@Main
Codec ID                    : V_MPEGH/ISO/HEVC
Duration                    : 1 h 58 min
Bit rate                    : 7 201 kb/s
Width                       : 1 920 pixels
Height                      : 1 080 pixels
Display aspect ratio        : 16:9
Frame rate mode             : Constant
Frame rate                  : 23.976 (24000/1001) FPS
Original frame rate         : 23.976 (23976/1000) FPS
Color space                 : YUV
Chroma subsampling          : 4:2:0
Bit depth                   : 10 bits
Bits/(Pixel*Frame)          : 0.145
Stream size                 : 5.95 GiB (88%)
Title                       : CHD
Writing library             : x265 3.1.2+1-76650bab70f9:[Windows][MSVC 1922][64 bit] 10bit
Encoding settings           : cpuid=1111039 / frame-threads=5 / numa-pools=36,36 / wpp / no-pmode / no-pme / no-psnr / no-ssim / log-level=2 / input-csp=1 / input-res=1920x1080 / interlace=0 / total-frames=0 / level-idc=0 / high-tier=1 / uhd-bd=0 / ref=6 / no-allow-non-conformance / repeat-headers / annexb / no-aud / no-hrd / info / hash=0 / no-temporal-layers / no-open-gop / min-keyint=23 / keyint=250 / gop-lookahead=0 / bframes=8 / b-adapt=2 / b-pyramid / bframe-bias=0 / rc-lookahead=24 / lookahead-slices=6 / scenecut=40 / radl=0 / no-splice / no-intra-refresh / ctu=64 / min-cu-size=8 / no-rect / no-amp / max-tu-size=32 / tu-inter-depth=1 / tu-intra-depth=1 / limit-tu=0 / rdoq-level=0 / dynamic-rd=0.00 / no-ssim-rd / signhide / no-tskip / nr-intra=0 / nr-inter=0 / no-constrained-intra / no-strong-intra-smoothing / max-merge=3 / limit-refs=1 / no-limit-modes / me=2 / subme=7 / merange=48 / temporal-mvp / weightp / weightb / no-analyze-src-pics / deblock=0:0 / sao / no-sao-non-deblock / rd=4 / early-skip / rskip / no-fast-intra / no-tskip-fast / no-cu-lossless / b-intra / no-splitrd-skip / rdpenalty=0 / psy-rd=2.00 / psy-rdoq=0.00 / no-rd-refine / no-lossless / cbqpoffs=0 / crqpoffs=0 / rc=crf / crf=16.0 / qcomp=0.60 / qpstep=4 / stats-write=0 / stats-read=0 / ipratio=1.40 / pbratio=1.30 / aq-mode=3 / aq-strength=1.00 / cutree / zone-count=0 / no-strict-cbr / qg-size=32 / no-rc-grain / qpmax=69 / qpmin=0 / no-const-vbv / sar=0 / overscan=0 / videoformat=5 / range=0 / colorprim=2 / transfer=2 / colormatrix=2 / chromaloc=0 / display-window=0cll=0,0 / min-luma=0 / max-luma=1023 / log2-max-poc-lsb=8 / vui-timing-info / vui-hrd-info / slices=1 / no-opt-qp-pps / no-opt-ref-list-length-pps / no-multi-pass-opt-rps / scenecut-bias=0.05 / no-opt-cu-delta-qp / aq-motion / no-hdr / no-hdr-opt / no-dhdr10-opt / no-idr-recovery-sei / analysis-reuse-level=5 / scale-factor=0 / refine-intra=0 / refine-inter=0 / refine-mv=0 / refine-ctu-distortion=0 / no-limit-sao / ctu-info=0 / no-lowpass-dct / refine-analysis-type=0 / copy-pic=1 / max-ausize-factor=1.0 / no-dynamic-refine / no-single-sei / no-hevc-aq / no-svt / no-field / qp-adaptation-range=1.00
Language                    : English
Default                     : Yes
Forced                      : No

Audio #1
ID                          : 2
Format                      : AC-3
Format/Info                 : Audio Coding 3
Commercial name             : Dolby Digital
Codec ID                    : A_AC3
Duration                    : 1 h 58 min
Bit rate mode               : Constant
Bit rate                    : 384 kb/s
Channel(s)                  : 6 channels
Channel layout              : L R C LFE Ls Rs
Sampling rate               : 48.0 kHz
Frame rate                  : 31.250 FPS (1536 SPF)
Bit depth                   : 16 bits
Compression mode            : Lossy
Stream size                 : 325 MiB (5%)
Title                       : iTunes
Language                    : Russian
Service kind                : Complete Main
Default                     : Yes
Forced                      : Yes

Audio #2
ID                          : 3
Format                      : AC-3
Format/Info                 : Audio Coding 3
Commercial name             : Dolby Digital
Codec ID                    : A_AC3
Duration                    : 1 h 58 min
Bit rate mode               : Constant
Bit rate                    : 640 kb/s
Channel(s)                  : 6 channels
Channel layout              : L R C LFE Ls Rs
Sampling rate               : 48.0 kHz
Frame rate                  : 31.250 FPS (1536 SPF)
Bit depth                   : 16 bits
Compression mode            : Lossy
Stream size                 : 541 MiB (8%)
Title                       : Original
Language                    : English
Service kind                : Complete Main
Default                     : No
Forced                      : No

Text #1
ID                          : 4
Format                      : UTF-8
Codec ID                    : S_TEXT/UTF8
Codec ID/Info               : UTF-8 Plain Text
Duration                    : 1 h 55 min
Bit rate                    : 68 b/s
Count of elements           : 1371
Stream size                 : 58.1 KiB (0%)
Title                       : Full
Language                    : Russian
Default                     : No
Forced                      : No

Text #2
ID                          : 5
Format                      : UTF-8
Codec ID                    : S_TEXT/UTF8
Codec ID/Info               : UTF-8 Plain Text
Duration                    : 1 h 47 min
Bit rate                    : 89 b/s
Count of elements           : 1642
Stream size                 : 70.4 KiB (0%)
Title                       : SDH
Language                    : Russian
Default                     : No
Forced                      : No

Text #3
ID                          : 6
Format                      : UTF-8
Codec ID                    : S_TEXT/UTF8
Codec ID/Info               : UTF-8 Plain Text
Duration                    : 1 h 46 min
Bit rate                    : 50 b/s
Count of elements           : 1369
Stream size                 : 39.1 KiB (0%)
Title                       : Full
Language                    : English
Default                     : No
Forced                      : No

Menu
00:00:00.000                : en:"Circle Of Life/Nants' Ingonyama"
00:04:50.499                : en:"Life's Not Fair"
00:10:51.067                : en:"Everything The Light Touches"
00:17:47.692                : en:"I Just Can't Wait To Be King"
00:23:53.015                : en:Elephant Graveyard
00:30:00.132                : en:Under The Stars
00:33:05.066                : en:"Be Prepared"
00:37:09.310                : en:Stampede
00:43:42.912                : en:Scar Takes Over
00:50:47.336                : en:Timon And Pumbaa
00:55:02.716                : en:"Hakuna Matata"
00:59:48.460                : en:Scar's Kingdom
01:06:27.233                : en:"Line Of Indifference"
01:14:32.093                : en:"The Lion Sleeps Tonight"
01:18:26.410                : en:"Can You Feel The Love Tonight"
01:23:07.900                : en:"He Lives In You"
01:28:04.654                : en:"Spirit"
01:33:10.877                : en:Simba Confronts Scar
01:37:13.745                : en:Battle For Pride Rock
01:44:39.190                : en:The Rightful King
01:47:47.336                : en:End Credits/"Never Too Late"



Скриншоты:
[+] Всего файлов в раздаче - 1:
The.Lion.King.2019.BDRip.1080p.x265.10bit.seleZen.mkv6.80 GB

Показать еще раздачи по запросу король:
2019-12-01 U Король Лев / The Lion King (2019) BDRip 720p от Scarabey | Лицензия 5.66 GB ↑ 55 ↓ 11
2019-11-30 U Король Лев / The Lion King (2019) HDRip от Scarabey | Лицензия 1К745.00 MB ↑ 74 ↓ 8
2019-11-29 U Король Лев / The Lion King (2019) HDRip от Scarabey | Лицензия 1.44 GB ↑ 207 ↓ 9
2019-11-28 U Король Лев / The Lion King (2019) BDRip-HEVC 1080p от HEVC-CLUB | Лицензия 7.75 GB ↑ 29 ↓ 11
2019-11-27 U Король Лев / The Lion King (2019) BDRip 720p от k.e.n & MegaPeer | Лицензия 1К4.37 GB ↑ 59 ↓ 26
2019-11-27 U Король Лев / The Lion King (2019) BDRip 720p от ExKinoRay | Лицензия 4.71 GB ↑ 65 ↓ 28
2019-11-27 U Король Лев / The Lion King (2019) BDRip от MegaPeer | Лицензия 2.18 GB ↑ 112 ↓ 36

Отзывы
Зарегистрируйтесь чтобы добавить комментарий.
Обратная связь
Copyleft ©