↑↓Torrent.by
Поиск
Логин: Регистрация
Пароль: Восстановить пароль

Король Лев / The Lion King (2019) BDRip-AVC от OlLanDGroup | iTunes

Скачать korol-lev-the-lion-king-2019-bdrip-avc-ot-ollandgroup-itunes.torrent
U Магнитная ссылка Размер: 2.46 GB Раздают: 112 Качают: 35 Добавлен: 2019-10-13 06:21:28
Король Лев / The Lion King  (2019) BDRip-AVC от OlLanDGroup | iTunes

Король Лев / The Lion King
«The King Has Returned»

Год выпуска: 2019
Страна: США
Производство: Walt Disney Pictures, Fairview Entertainment
Жанр:  Мультфильм, мюзикл, драма, приключения, семейный, ремейк

Режиссёр: Джон Фавро
В ролях: Джеймс Эрл Джонс, Дональд Гловер, Чиветел Эджиофор, Джон Оливер, Джон Кани, Элфри Вудард, Джейдон Маккрэри, Шахади Райт Джозеф, Пенни Джонсон, Кигэн-Майкл Ки

Перевод: Дублированный | [iTunes]
Субтитры: Русские (полные, SDH), английские (полные)
Реклама: Отсутствует

Описание: Львенок Симба с раннего детства знал, что однажды станет Королем Львом. Потеря отца, величественного и бесстрашного Муфасы, вероломство дяди, захватившего власть; чувство вины, бегство из прайда, новые друзья и философия беззаботности «акуна матата» вынуждают Симбу забыть о своем предназначении. Но царству зверей по-прежнему нужен настоящий король, и однажды он вспомнит дорогу домой.

Качество: BDRip-AVC | BDRemux | The.Lion.King.2019.BDREMUX.1080p.seleZen
Продолжительность: 01:58:15

Формат: MKV
Видео кодек: MPEG-4 AVC
Аудио кодек: AC3
Видео: 1024x576 (16:9), 23,976 fps, x264 ~2 138 kbps avg, 0.151 bit/pixel
Аудио #1: 48 kHz, AC3 Dolby Digital, 3/2 (L,C,R,l,r) + LFE ch, ~384.00 kbps avg | RUS (iTunes)
Аудио #2: 48 kHz, AC3 Dolby Digital, 3/2 (L,C,R,l,r) + LFE ch, ~448.00 kbps avg | ENG

Дата премьеры (мир): 9 июля 2019
Дата премьеры (РФ): 18 июля 2019, «WDSSPR»
Цифровой релиз: 11 ноября 2019, «Уолт Дисней Компани СНГ»

Релиз:


[+] MediaInfo

Общее
Уникальный идентификатор                 : 270491666164012394971271796035027990665 (0xCB7ECCC9FF84D7AB5F921FA2FDBFF889)
Полное имя                               : F:OlLanDGroupThe.Lion.King.2019.BDRip(AVC).OlLanDGroup.mkv
Формат                                   : Matroska
Версия формата                           : Version 4 / Version 2
Размер файла                             : 2,46 Гбайт
Продолжительность                        : 1 ч. 58 м.
Общий поток                              : 2972 Кбит/сек
Название фильма                          : The Lion King 2019   #TorpedoUK#
Дата кодирования                         : UTC 2019-10-12 16:07:04
Программа кодирования                    : mkvmerge v29.0.0 ('Like It Or Not') 64-bit
Библиотека кодирования                   : libebml v1.3.6 + libmatroska v1.4.9

Видео
Идентификатор                            : 1
Формат                                   : AVC
Формат/Информация                        : Advanced Video Codec
Профиль формата                          : High@L4.1
Параметр CABAC формата                   : Да
Параметр ReFrames формата                : 10 кадров
Идентификатор кодека                     : V_MPEG4/ISO/AVC
Продолжительность                        : 1 ч. 58 м.
Битрейт                                  : 2138 Кбит/сек
Ширина                                   : 1024 пикселя
Высота                                   : 576 пикселей
Соотношение сторон                       : 16:9
Режим частоты кадров                     : Постоянный
Частота кадров                           : 23,976 (24000/1001) кадра/сек
Цветовое пространство                    : YUV
Субдискретизация насыщенности            : 4:2:0
Битовая глубина                          : 8 бит
Тип развёртки                            : Прогрессивная
Бит/(Пиксели*Кадры)                      : 0.151
Размер потока                            : 1,77 Гбайт (72%)
Библиотека кодирования                   : x264 core 146 r2538 121396c
Настройки программы                      : cabac=1 / ref=10 / deblock=1:-3:-3 / analyse=0x3:0x113 / me=umh / subme=11 / psy=1 / psy_rd=1.00:0.03 / mixed_ref=1 / me_range=48 / chroma_me=1 / trellis=2 / 8x8dct=1 / cqm=0 / deadzone=21,11 / fast_pskip=1 / chroma_qp_offset=-6 / threads=6 / lookahead_threads=1 / sliced_threads=0 / nr=0 / decimate=1 / interlaced=0 / bluray_compat=0 / constrained_intra=0 / bframes=11 / b_pyramid=2 / b_adapt=2 / b_bias=0 / direct=3 / weightb=1 / open_gop=0 / weightp=2 / keyint=240 / keyint_min=23 / scenecut=40 / intra_refresh=0 / rc_lookahead=40 / rc=2pass / mbtree=0 / bitrate=2138 / ratetol=1.0 / qcomp=0.60 / qpmin=0 / qpmax=69 / qpstep=4 / cplxblur=20.0 / qblur=0.5 / vbv_maxrate=50000 / vbv_bufsize=62500 / nal_hrd=none / filler=0 / ip_ratio=1.40 / pb_ratio=1.30 / aq=1:1.00
Язык                                     : English
Default                                  : Да
Forced                                   : Нет

Аудио #1
Идентификатор                            : 2
Формат                                   : AC-3
Формат/Информация                        : Audio Coding 3
Расширение режима                        : CM (complete main)
Параметр Endianness формата              : Big
Идентификатор кодека                     : A_AC3
Продолжительность                        : 1 ч. 58 м.
Вид битрейта                             : Постоянный
Битрейт                                  : 384 Кбит/сек
Каналы                                   : 6 каналов
Расположение каналов                     : Front: L C R, Side: L R, LFE
Частота                                  : 48,0 КГц
Частота кадров                           : 31,250 кадров/сек (1536 spf)
Битовая глубина                          : 16 бит
Метод сжатия                             : С потерями
Размер потока                            : 325 Мбайт (13%)
Заголовок                                : DUB [iTunes]
Язык                                     : Russian
Default                                  : Да
Forced                                   : Нет

Аудио #2
Идентификатор                            : 3
Формат                                   : AC-3
Формат/Информация                        : Audio Coding 3
Расширение режима                        : CM (complete main)
Параметр Endianness формата              : Big
Идентификатор кодека                     : A_AC3
Продолжительность                        : 1 ч. 58 м.
Вид битрейта                             : Постоянный
Битрейт                                  : 448 Кбит/сек
Каналы                                   : 6 каналов
Расположение каналов                     : Front: L C R, Side: L R, LFE
Частота                                  : 48,0 КГц
Частота кадров                           : 31,250 кадров/сек (1536 spf)
Битовая глубина                          : 16 бит
Метод сжатия                             : С потерями
Размер потока                            : 379 Мбайт (15%)
Заголовок                                : [Original]
Язык                                     : English
Default                                  : Нет
Forced                                   : Нет

Текст #1
Идентификатор                            : 4
Формат                                   : UTF-8
Идентификатор кодека                     : S_TEXT/UTF8
Идентификатор кодека/Информация          : UTF-8 Plain Text
Продолжительность                        : 1 ч. 55 м.
Битрейт                                  : 68 бит/сек
Count of elements                        : 1371
Размер потока                            : 58,1 Кбайт (0%)
Заголовок                                : Full
Язык                                     : Russian
Default                                  : Нет
Forced                                   : Нет

Текст #2
Идентификатор                            : 5
Формат                                   : UTF-8
Идентификатор кодека                     : S_TEXT/UTF8
Идентификатор кодека/Информация          : UTF-8 Plain Text
Продолжительность                        : 1 ч. 47 м.
Битрейт                                  : 89 бит/сек
Count of elements                        : 1642
Размер потока                            : 70,4 Кбайт (0%)
Заголовок                                : SDH
Язык                                     : Russian
Default                                  : Нет
Forced                                   : Нет

Текст #3
Идентификатор                            : 6
Формат                                   : UTF-8
Идентификатор кодека                     : S_TEXT/UTF8
Идентификатор кодека/Информация          : UTF-8 Plain Text
Продолжительность                        : 1 ч. 46 м.
Битрейт                                  : 50 бит/сек
Count of elements                        : 1369
Размер потока                            : 39,1 Кбайт (0%)
Заголовок                                : Full
Язык                                     : English
Default                                  : Нет
Forced                                   : Нет

Меню
00:00:00.000                             : en:"Circle Of Life/Nants' Ingonyama"
00:04:50.499                             : en:"Life's Not Fair"
00:10:51.067                             : en:"Everything The Light Touches"
00:17:47.692                             : en:"I Just Can't Wait To Be King"
00:23:53.015                             : en:Elephant Graveyard
00:30:00.132                             : en:Under The Stars
00:33:05.066                             : en:"Be Prepared"
00:37:09.310                             : en:Stampede
00:43:42.912                             : en:Scar Takes Over
00:50:47.336                             : en:Timon And Pumbaa
00:55:02.716                             : en:"Hakuna Matata"
00:59:48.460                             : en:Scar's Kingdom
01:06:27.233                             : en:"Line Of Indifference"
01:14:32.093                             : en:"The Lion Sleeps Tonight"
01:18:26.410                             : en:"Can You Feel The Love Tonight"
01:23:07.900                             : en:"He Lives In You"
01:28:04.654                             : en:"Spirit"
01:33:10.877                             : en:Simba Confronts Scar
01:37:13.745                             : en:Battle For Pride Rock
01:44:39.190                             : en:The Rightful King
01:47:47.336                             : en:End Credits/"Never Too Late"



Скриншоты:
[+] Всего файлов в раздаче - 1:
The.Lion.King.2019.BDRip(AVC).OlLanDGroup.mkv2.46 GB

Показать еще раздачи по запросу король:
2019-11-10 U Король Лев / The Lion King (2019) BDRip 1080p от Ash61 | 3D-Video | halfOU | iTunes 11.33 GB ↑ 41 ↓ 16
2019-11-09 U Король Лев / The Lion King (2019) BDRip 1080p от селезень | 3D-Video | HSBS | iTunes 13.23 GB ↑ 70 ↓ 48
2019-11-05 U Король / The King (2019) WEB-DLRip-AVC от OllanDGroup | Пифагор 1.44 GB ↑ 68 ↓ 16
2019-11-04 U Король / The King (2019) WEB-DLRip-AVC от OllanDGroup | Пифагор 2.45 GB ↑ 136 ↓ 26
2019-11-03 U Король / The King (2019) WEB-DLRip от MegaPeer | Пифагор 790.62 MB ↑ 77 ↓ 34
2019-11-03 U Король / The King (2019) WEB-DLRip от Scarabey | Пифагор 1.45 GB ↑ 219 ↓ 62
2019-11-01 U Король / The King (2019) WEBRip 720p | D | Пифагор 4.31 GB ↑ 127 ↓ 144

Отзывы
Зарегистрируйтесь чтобы добавить комментарий.
Обратная связь
Copyleft ©