↑↓Torrent.by
Поиск
Логин: Регистрация
Пароль: Восстановить пароль

Битва (2019) WEB-DLRip-AVC от ExKinoRay | iTunes

Скачать bitva-2019-web-dlrip-avc-ot-exkinoray-itunes.torrent
U Магнитная ссылка Размер: 746.08 MB Раздают: 56 Качают: 8 Добавлен: 2019-10-13 06:22:45
Битва (2019) WEB-DLRip-AVC от ExKinoRay | iTunes

Название: Битва
Год выпуска: 2019
Жанр:  Драма
Режиссер: Анар Аббасов
В ролях: Риналь Мухаметов, Анна Исаева, Екатерина Кукуй, Илья Антоненко, Игорь Миркурбанов, Виталий Коваленко, Анфиса Семина, Алла Еминцева, Артем Карпов, Дмитрий Хасис, Михаил Кулешов, Гурген Манукян, Максим Авдеев, Александр Саюталин

О фильме:
Стрит дансер Антон делает стремительную карьеру — его команда побеждает на всех баттлах, он признанный хореограф и всё его будущее связано с танцем. Однако несчастный случай рушит все планы — Антон лишается слуха, а с ним и всех надежд. Оказавшись в непривычном мире тишины, Антон постепенно понимает, что это не конец. Страсть к танцу, воля к победе и любовь к жизни подсказывают ему новый путь к заветной мечте. И его главная битва ещё впереди.

Страна: Россия
Студия: ТПО «Рок»
Продолжительность: 01:25:12
Язык: Русский | iTunes

Файл
Формат: MKV
Качество: WEB-DLRip-AVC
Видео: MPEG-4 AVC, 800x336, - 1146 Кбит/с
Аудио:  AAC-HE, 2 ch, - 76 Кбит/с
Субтитры: Нет


[+] MI
Общее
Уникальный идентификатор : 76832436207990902538004796745147231600 (0x39CD6392D683566D203FC3C2A87C2D70)
Полное имя : D:MOVIESBitva.2019.WEB-DLRip-AVC.ExKinoRay.mkv
Формат : Matroska
Версия формата : Version 4 / Version 2
Размер файла : 746 Мбайт
Продолжительность : 1 ч. 25 м.
Общий поток : 1224 Кбит/сек
Дата кодирования : UTC 2019-10-11 04:35:53
Программа кодирования : mkvmerge v35.0.0 ('All The Love In The World') 64-bit
Библиотека кодирования : libebml v1.3.9 + libmatroska v1.5.2

Видео
Идентификатор : 1
Формат : AVC
Формат/Информация : Advanced Video Codec
Профиль формата : High@L4.1
Параметр CABAC формата : Да
Параметр RefFrames формата : 12 кадров
Идентификатор кодека : V_MPEG4/ISO/AVC
Продолжительность : 1 ч. 25 м.
Битрейт : 1146 Кбит/сек
Ширина : 800 пикселей
Высота : 336 пикселей
Соотношение сторон : 2,40:1
Режим частоты кадров : Постоянный
Частота кадров : 24,000 кадра/сек
Цветовое пространство : YUV
Субдискретизация насыщенности : 4:2:0
Битовая глубина : 8 бит
Тип развёртки : Прогрессивная
Бит/(Пиксели*Кадры) : 0.178
Размер потока : 699 Мбайт (94%)
Библиотека кодирования : x264 core 152 r2851kMod ba24899
Настройки программы : cabac=1 / ref=12 / deblock=1:-3:-3 / analyse=0x3:0x133 / me=umh / subme=10 / psy=1 / fade_compensate=0.00 / psy_rd=1.00:0.12 / mixed_ref=1 / me_range=32 / chroma_me=1 / trellis=2 / 8x8dct=1 / cqm=0 / deadzone=21,11 / fast_pskip=0 / chroma_qp_offset=-3 / threads=6 / lookahead_threads=1 / sliced_threads=0 / nr=0 / decimate=0 / interlaced=0 / bluray_compat=0 / constrained_intra=0 / bframes=12 / b_pyramid=2 / b_adapt=2 / b_bias=0 / direct=3 / weightb=1 / open_gop=0 / weightp=2 / keyint=240 / keyint_min=23 / scenecut=40 / intra_refresh=0 / rc_lookahead=40 / rc=2pass / mbtree=1 / bitrate=1146 / ratetol=1.0 / qcomp=0.60 / qpmin=0 / qpmax=69 / qpstep=4 / cplxblur=20.0 / qblur=0.5 / ip_ratio=1.40 / aq=3:1.00
Default : Да
Forced : Нет

Аудио
Идентификатор : 2
Формат : AAC
Формат/Информация : Advanced Audio Codec
Профиль формата : HE-AAC / LC
Идентификатор кодека : A_AAC
Продолжительность : 1 ч. 25 м.
Битрейт : 76,0 Кбит/сек
Каналы : 2 канала
Расположение каналов : Front: L R
Частота : 48,0 КГц / 24,0 КГц
Частота кадров : 23,438 кадра/сек (1024 SPF)
Метод сжатия : С потерями
Задержка видео : 31 мс.
Размер потока : 46,3 Мбайт (6%)
Язык : Russian
Default : Да
Forced : Нет

Меню
00:00:00.000 : en:Глава 1
00:07:07.791 : en:Глава 2
00:13:57.874 : en:Глава 3
00:21:01.165 : en:Глава 4
00:26:05.165 : en:Глава 5
00:33:23.498 : en:Глава 6
00:40:20.789 : en:Глава 7
00:46:02.872 : en:Глава 8
00:51:56.663 : en:Глава 9
00:57:26.454 : en:Глава 10
01:02:56.079 : en:Глава 11
01:07:39.079 : en:Глава 12
01:17:09.870 : en:Глава 13



Скриншоты:
[+] Всего файлов в раздаче - 1:
Bitva.2019.WEB-DLRip-AVC.ExKinoRay.mkv746.08 MB

Показать еще раздачи по запросу битва:
2019-11-04 U Битва экстрасенсов [20х01-06] (2019) WEBRip 720p от Files-x 9.07 GB ↑ 27 ↓ 72
2019-11-03 U Битва экстрасенсов [20х01-06] (2019) SATRip 5.51 GB ↑ 98 ↓ 557
2019-10-28 U Битва экстрасенсов [20х01-05] (2019) WEBRip от Files-x 4.61 GB ↑ 27 ↓ 139
2019-10-28 U Битва экстрасенсов [20х01-05] (2019) WEBRip 720p от Files-x 7.55 GB ↑ 27 ↓ 114
2019-10-21 U Битва экстрасенсов [20х01-04] (2019) WEBRip 720p от Files-x 6.17 GB ↑ 51 ↓ 141
2019-10-16 U Освобождая Родину. Битва за Кpым: крах Готенланда [01-02 из 02] (2019) SATRip 1,014.54 MB ↑ 47 ↓ 14
2019-10-14 U Битва экстрасенсов [20х01-03] (2019) WEBRip от Files-x 2.75 GB ↑ 41 ↓ 84

Отзывы
Зарегистрируйтесь чтобы добавить комментарий.
Обратная связь
Copyleft ©