↑↓torrent.by
Поиск
Логин: Регистрация
Пароль: Восстановить пароль

Doom: Аннигиляция / Doom: Annihilation (2019) WEBRip 1080p | HDRezka Studio

Скачать doom-annigilyaciya-annihilation-2019-webrip-1080p-hdrezka-studio.torrent
U Магнитная ссылка Размер: 1.35 GB Раздают: 286 Качают: 35 Добавлен: 2019-10-15 07:29:55
Doom: Аннигиляция / Doom: Annihilation (2019) WEBRip 1080p | HDRezka Studio

Название: Doom: Аннигиляция
Оригинальное название: Doom: Annihilation
Год выхода: 2019
Жанр: Ужасы, фантастика, боевик
Режиссер: Тони Гиглио
В ролях: Эми Мэнсон, Луис Мэндилор, Нина Бергман, Кейт Николс, Лорина Камбурова, Доминик Мафэм, Люк Аллен-Гейл, Хари Диллон, Амер Чадха-Патель, Джемма Мур

О фильме: Группа выдающихся ученых, работающая в сверхсекретной лаборатории на спутнике Марса, проводит рискованные эксперименты над устройством телепортации. Когда очередная попытка тестирования прибора заканчивается провалом, научный центр превращается в место кровавой бойни, поскольку на сотрудников нападают ужасные существа, воспользовавшиеся открывшимся порталом. Ученым удается отправить сигнал бедствия, который получают члены отряда специального назначения, еще не подозревающие, что вскоре им предстоит вступить в сражение с чудовищными монстрами-мутантами...

Страна: США
Студия: Battle Mountain Films, Di Bonaventura Pictures, John Wells Productions
Продолжительность: 01:37:09
Перевод: Профессиональный многоголосый (HDRezka Studio)

Качество: WEBRip 1080p
Видео: MPEG-4 AVC, 1802 Кбит/с, 1920x1080, 23.976 Кадр/с
Звук: Русский (AAC, 2 ch, 192 Kbit/s)
Субтитры: Русские (форсированные, хардсаб)
Семпл

Без рекламы.


[+] Медиа Инфо
Video
ID                          : 1
Format                      : AVC
Format/Info                 : Advanced Video Codec
Format profile              : High@L4.1
Format settings             : CABAC / 4 Ref Frames
Format settings, CABAC      : Yes
Format settings, Reference  : 4 frames
Codec ID                    : V_MPEG4/ISO/AVC
Duration                    : 1 h 37 min
Bit rate                    : 1 802 kb/s
Width                       : 1 920 pixels
Height                      : 1 088 pixels
Original height             : 1 080 pixels
Display aspect ratio        : 16:9
Original display aspect rat : 16:9
Frame rate mode             : Constant
Frame rate                  : 23.976 (24000/1001) FPS
Color space                 : YUV
Chroma subsampling          : 4:2:0
Bit depth                   : 8 bits
Scan type                   : Progressive
Bits/(Pixel*Frame)          : 0.036
Stream size                 : 1.22 GiB (90%)
Language                    : English
Default                     : Yes
Forced                      : No

Audio
ID                          : 2
Format                      : AAC LC
Format/Info                 : Advanced Audio Codec Low Complexity
Codec ID                    : A_AAC-2
Duration                    : 1 h 37 min
Bit rate                    : 192 kb/s
Channel(s)                  : 2 channels
Channel layout              : L R
Sampling rate               : 48.0 kHz
Frame rate                  : 46.875 FPS (1024 SPF)
Compression mode            : Lossy
Delay relative to video     : 16 ms
Stream size                 : 132 MiB (10%)
Language                    : Russian
Default                     : Yes
Forced                      : No



Скриншоты:
[+] Всего файлов в раздаче - 1:
Doom.Annihilation.2019.1080p.webrip.mkv1.35 GB

Похожие раздачи по запросу - doom:
2019-10-04 U Doom: Аннигиляция / Doom: Annihilation (2019) BDRip | L 1.46 GB ↑ 548 ↓ 86

Отзывы
Зарегистрируйтесь чтобы добавить комментарий.
Обратная связь
Copyleft ©