↑↓torrent.by
Поиск
Логин: Регистрация
Пароль: Восстановить пароль

Перелом / Fractured (2019) WEBRip 1080p | LakeFilms

Скачать perelom-fractured-2019-webrip-1080p-lakefilms.torrent
U Магнитная ссылка Размер: 1.84 GB Раздают: 261 Качают: 70 Добавлен: 2019-10-16 14:51:27
Перелом / Fractured (2019) WEBRip 1080p | LakeFilms

Название: Перелом
Оригинальное название: Fractured
Год выпуска: 2019
Жанр:  Триллер
Выпущено: США, Koji Productions, Crow Island Films, Macari/Edelstein
Режиссер: Брэд Андерсон
В ролях: Сэм Уортингтон, Лили Рэйб, Стивен Тоболовски, Люси капри, Аджоа Андох, Стефани Сай, Лорен Кокрейн, Натали Бэйли, Эрик Атхавале, Дэннис Скаллард

О фильме: Рэй едет на машине через всю страну с женой и дочерью. На очередной стоянке дочка ломает руку. Рэй в спешке везет ее в больницу и, поскандалив с медсестрой в регистратуре, все-таки добивается срочного осмотра врача. Девочку отправляют на МРТ, а герой, основательно вымотавшись, засыпает в кресле в фойе. Проснувшись через какое-то время, Рэй обнаруживает, что его жена и дочь бесследно исчезли — вместе с записью в журнале посещений в регистратуре.

Техданные
Качество: WEBRip (1080p)
Видео: MPEG-4 AVC, ~ 2 260 kb/s, 1920x1080, 24.000 FPS
Аудио: AC3, 2 ch, 384 Кбит/с
Продолжительность: 01:40:04
Перевод: Любительский двухголосый закадровый (LakeFilms)

РЕЛИЗ БЕЗ РЕКЛАМЫ!


[+] MI
General
Unique ID                                : 107304850483412174714769855134317180775 (0x50BA2997CA8BEE34DC2A0D69F3247767)
Complete name                            : D:Fractured.2019.1080p.LakeFilms.mkv
Format                                   : Matroska
Format version                           : Version 4 / Version 2
File size                                : 1.84 GiB
Duration                                 : 1 h 40 min
Overall bit rate mode                    : Variable
Overall bit rate                         : 2 631 kb/s
Encoded date                             : UTC 2019-10-15 22:35:22
Writing application                      : mkvmerge v27.0.0 ('Metropolis') 64-bit
Writing library                          : libebml v1.3.6 + libmatroska v1.4.9

Video
ID                                       : 1
Format                                   : AVC
Format/Info                              : Advanced Video Codec
Format profile                           : Main@L4
Format settings                          : CABAC / 3 Ref Frames
Format settings, CABAC                   : Yes
Format settings, RefFrames               : 3 frames
Codec ID                                 : V_MPEG4/ISO/AVC
Duration                                 : 1 h 40 min
Bit rate mode                            : Variable
Bit rate                                 : 2 260 kb/s
Maximum bit rate                         : 3 390 kb/s
Width                                    : 1 920 pixels
Height                                   : 1 080 pixels
Display aspect ratio                     : 16:9
Frame rate mode                          : Constant
Frame rate                               : 24.000 FPS
Color space                              : YUV
Chroma subsampling                       : 4:2:0
Bit depth                                : 8 bits
Scan type                                : Progressive
Bits/(Pixel*Frame)                       : 0.045
Stream size                              : 1.57 GiB (85%)
Writing library                          : x264 core 148 r2715 7e75228
Encoding settings                        : cabac=1 / ref=3 / deblock=1:0:0 / analyse=0x1:0x111 / me=umh / subme=10 / psy=1 / psy_rd=1.00:0.00 / mixed_ref=1 / me_range=24 / chroma_me=1 / trellis=2 / 8x8dct=0 / cqm=0 / deadzone=21,11 / fast_pskip=1 / chroma_qp_offset=-2 / threads=8 / lookahead_threads=1 / sliced_threads=0 / nr=0 / decimate=1 / interlaced=0 / bluray_compat=0 / stitchable=1 / constrained_intra=0 / bframes=2 / b_pyramid=0 / b_adapt=2 / b_bias=0 / direct=3 / weightb=1 / open_gop=0 / weightp=2 / keyint=250 / keyint_min=24 / scenecut=0 / intra_refresh=0 / rc_lookahead=48 / rc=2pass / mbtree=1 / bitrate=2260 / ratetol=1.0 / qcomp=0.50 / qpmin=6 / qpmax=51 / qpstep=4 / cplxblur=20.0 / qblur=0.5 / vbv_maxrate=3390 / vbv_bufsize=4520 / nal_hrd=vbr / filler=0 / ip_ratio=1.40 / aq=1:1.00
Language                                 : English
Default                                  : Yes
Forced                                   : No

Audio
ID                                       : 2
Format                                   : AC-3
Format/Info                              : Audio Coding 3
Codec ID                                 : A_AC3
Duration                                 : 1 h 40 min
Bit rate mode                            : Constant
Bit rate                                 : 384 kb/s
Channel(s)                               : 2 channels
Channel positions                        : Front: L R
Sampling rate                            : 48.0 kHz
Frame rate                               : 31.250 FPS (1536 SPF)
Bit depth                                : 16 bits
Compression mode                         : Lossy
Stream size                              : 275 MiB (15%)
Service kind                             : Complete Main
Default                                  : Yes
Forced                                   : No



Скриншоты:
[+] Всего файлов в раздаче - 1:
Fractured.2019.1080p.LakeFilms.mkv1.84 GB

Похожие раздачи по запросу - перелом:
2019-10-23 U Перелом / Fractured (2019) WEBRip от ExKinoRay | L2 748.62 MB ↑ 63 ↓ 18
2019-10-22 U Перелом / Frectured (2019) WEBRip 1080p | L 2.67 GB ↑ 155 ↓ 28
2019-10-16 U Перелом / Fractured (2019) WEBRip 720p | L2 1.50 GB ↑ 136 ↓ 51

Отзывы
Зарегистрируйтесь чтобы добавить комментарий.
Обратная связь
Copyleft ©