↑↓torrent.by
Поиск
Логин: Регистрация
Пароль: Восстановить пароль

Перелом / Fractured (2019) WEBRip 720p | L2

Скачать perelom-fractured-2019-webrip-720p-l2.torrent
U Магнитная ссылка Размер: 1.50 GB Раздают: 165 Качают: 51 Добавлен: 2019-10-16 14:52:00
Перелом / Fractured (2019) WEBRip 720p | L2

Название: Перелом
Оригинальное название: Fractured
Год выхода: 2019
Жанр: Триллер
Режиссер: Брэд Андерсон
В ролях: Сэм Уортингтон, Лили Рэйб, Стивен Тоболовски, Люси капри, Аджоа Андох, Стефани Сай, Лорен Кокрейн, Натали Бэйли, Эрик Атхавале, Дэннис Скаллард

О фильме:
Рэй едет на машине через всю страну с женой и дочерью. На очередной стоянке дочка ломает руку. Рэй в спешке везет ее в больницу и, поскандалив с медсестрой в регистратуре, все-таки добивается срочного осмотра врача. Девочку отправляют на МРТ, а герой, основательно вымотавшись, засыпает в кресле в фойе. Проснувшись через какое-то время, Рэй обнаруживает, что его жена и дочь бесследно исчезли — вместе с записью в журнале посещений в регистратуре.

Страна: США
Студия: Koji Productions, Crow Island Films, Macari/Edelstein
Продолжительность: 01:40:04
Перевод: Любительский двухголосый

Файл
Кодек: x.264
Качество: WEBRip 720p | Fractured.2019.720p.WEBRip.X264-METCON
Видео: MPEG-4 AVC, 1142 Kбит/с, 1280x534, 24.000 кадр/с
Звук: ► Без Рекламы!
Аудио #1: Русский (АС3, 2 ch, 192 Кбит/с, 48.0 KHz) Любительский (двухголосый, закадровый) LakeFilms
Аудио #2: Английский (E-AC-3 JOC, 6 ch, 768 Кбит/с, 48.0 KHz)
Субтитры: Русские, английские, испанские, французские, немецкие, итальянские | Нетфликс
Трейлер




[+] MediaInfo
Источник: Fractured.2019.720p.WEBRip.X264-METCON
General
Unique ID                      : 222156998208352512133643825443633052250 (0xA721E1AB533EE715A50AAC4F080F3A5A)
Complete name                  : Fractured.2019.NF.WEBRip.720p.mkv
Format                         : Matroska
Format version                 : Version 4
File size                      : 1.50 GiB
Duration                       : 1 h 40 min
Overall bit rate               : 2 139 kb/s
Encoded date                   : UTC 2019-10-16 10:16:30
Writing application            : mkvmerge v7.1.0 ('Good Love') 64bit built on Jul 27 2014 13:06:55
Writing library                : libebml v1.3.0 + libmatroska v1.4.1

Video
ID                             : 1
Format                         : AVC
Format/Info                    : Advanced Video Codec
Format profile                 : High@L4.1
Format settings                : CABAC / 5 Ref Frames
Format settings, CABAC         : Yes
Format settings, Reference fra : 5 frames
Codec ID                       : V_MPEG4/ISO/AVC
Duration                       : 1 h 40 min
Bit rate                       : 1 176 kb/s
Width                          : 1 280 pixels
Height                         : 534 pixels
Display aspect ratio           : 2.40:1
Original display aspect ratio  : 2.40:1
Frame rate mode                : Constant
Frame rate                     : 24.000 FPS
Color space                    : YUV
Chroma subsampling             : 4:2:0
Bit depth                      : 8 bits
Scan type                      : Progressive
Bits/(Pixel*Frame)             : 0.072
Stream size                    : 842 MiB (55%)
Writing library                : x264 core 157 r2935 545de2f
Encoding settings              : cabac=1 / ref=5 / deblock=1:-3:-3 / analyse=0x3:0x113 / me=umh / subme=8 / psy=1 / psy_rd=1.00:0.00 / mixed_ref=1 / me_range=16 / chroma_me=1 / trellis=2 / 8x8dct=1 / cqm=0 / deadzone=21,11 / fast_pskip=1 / chroma_qp_offset=-2 / threads=17 / lookahead_threads=2 / sliced_threads=0 / nr=0 / decimate=1 / interlaced=0 / bluray_compat=0 / constrained_intra=0 / bframes=3 / b_pyramid=2 / b_adapt=1 / b_bias=0 / direct=3 / weightb=1 / open_gop=0 / weightp=2 / keyint=250 / keyint_min=24 / scenecut=40 / intra_refresh=0 / rc_lookahead=50 / rc=crf / mbtree=1 / crf=18.0 / qcomp=0.60 / qpmin=0 / qpmax=69 / qpstep=4 / ip_ratio=1.40 / aq=3:0.80
Language                       : English
Default                        : Yes
Forced                         : No

Audio #1
ID                             : 2
Format                         : AC-3
Format/Info                    : Audio Coding 3
Commercial name                : Dolby Digital
Codec ID                       : A_AC3
Duration                       : 1 h 40 min
Bit rate mode                  : Constant
Bit rate                       : 192 kb/s
Channel(s)                     : 2 channels
Channel layout                 : L R
Sampling rate                  : 48.0 kHz
Frame rate                     : 31.250 FPS (1536 SPF)
Bit depth                      : 16 bits
Compression mode               : Lossy
Stream size                    : 137 MiB (9%)
Title                          : LakeFilms
Language                       : Russian
Service kind                   : Complete Main
Default                        : Yes
Forced                         : No

Audio #2
ID                             : 3
Format                         : E-AC-3 JOC
Format/Info                    : Enhanced AC-3 with Joint Object Coding
Commercial name                : Dolby Digital Plus with Dolby Atmos
Codec ID                       : A_EAC3
Duration                       : 1 h 40 min
Bit rate mode                  : Constant
Bit rate                       : 768 kb/s
Channel(s)                     : 6 channels
Channel layout                 : L R C LFE Ls Rs
Sampling rate                  : 48.0 kHz
Frame rate                     : 31.250 FPS (1536 SPF)
Compression mode               : Lossy
Stream size                    : 550 MiB (36%)
Language                       : English
Service kind                   : Complete Main
Default                        : No
Forced                         : No
Complexity index               : 16
Number of dynamic objects      : 15
Bed channel count              : 1 channel
Bed channel configuration      : LFE

Text #1
ID                             : 4
Format                         : UTF-8
Codec ID                       : S_TEXT/UTF8
Codec ID/Info                  : UTF-8 Plain Text
Duration                       : 1 h 37 min
Bit rate                       : 83 b/s
Count of elements              : 1329
Stream size                    : 59.3 KiB (0%)
Title                          : Russian
Language                       : Russian
Default                        : No
Forced                         : No

Text #2
ID                             : 5
Format                         : UTF-8
Codec ID                       : S_TEXT/UTF8
Codec ID/Info                  : UTF-8 Plain Text
Duration                       : 1 h 38 min
Bit rate                       : 72 b/s
Count of elements              : 1632
Stream size                    : 52.3 KiB (0%)
Title                          : English
Language                       : English
Default                        : No
Forced                         : No

Text #3
ID                             : 6
Format                         : UTF-8
Codec ID                       : S_TEXT/UTF8
Codec ID/Info                  : UTF-8 Plain Text
Duration                       : 1 h 38 min
Bit rate                       : 50 b/s
Count of elements              : 1309
Stream size                    : 36.4 KiB (0%)
Title                          : German
Language                       : German
Default                        : No
Forced                         : No

Text #4
ID                             : 7
Format                         : UTF-8
Codec ID                       : S_TEXT/UTF8
Codec ID/Info                  : UTF-8 Plain Text
Duration                       : 1 h 37 min
Bit rate                       : 58 b/s
Count of elements              : 1379
Stream size                    : 41.3 KiB (0%)
Title                          : French
Language                       : French
Default                        : No
Forced                         : No

Text #5
ID                             : 8
Format                         : UTF-8
Codec ID                       : S_TEXT/UTF8
Codec ID/Info                  : UTF-8 Plain Text
Duration                       : 1 h 38 min
Bit rate                       : 48 b/s
Count of elements              : 1367
Stream size                    : 34.8 KiB (0%)
Title                          : Spanish
Language                       : Spanish
Default                        : No
Forced                         : No

Text #6
ID                             : 9
Format                         : UTF-8
Codec ID                       : S_TEXT/UTF8
Codec ID/Info                  : UTF-8 Plain Text
Duration                       : 1 h 37 min
Bit rate                       : 47 b/s
Count of elements              : 1343
Stream size                    : 33.6 KiB (0%)
Title                          : Italian
Language                       : Italian
Default                        : No
Forced                         : No



Скриншоты:
[+] Всего файлов в раздаче - 1:
Fractured.2019.NF.WEBRip.720p.mkv1.50 GB

Похожие раздачи по запросу - перелом:
2019-10-22 U Перелом / Frectured (2019) WEBRip 1080p | L 2.67 GB ↑ 157 ↓ 28
2019-10-16 U Перелом / Fractured (2019) WEBRip 1080p | LakeFilms 1.84 GB ↑ 270 ↓ 70

Отзывы
Зарегистрируйтесь чтобы добавить комментарий.
Обратная связь
Copyleft ©