↑↓torrent.by
Поиск
Логин: Регистрация
Пароль: Восстановить пароль

Шторм [01-08 из 08] (2019) WEBRip от GeneralFilm

Скачать shtorm-01-08-iz-2019-webrip-ot-generalfilm.torrent
U Магнитная ссылка Размер: 4.54 GB Раздают: 643 Качают: 462 Добавлен: 2019-10-17 17:44:55
Шторм [01-08 из 08] (2019) WEBRip от GeneralFilm

Оригинальное название: Шторм
Год выпуска: 2019
Жанр:  Драма, детектив
Выпущено: Россия, «Start Studio», «Марс Медиа»
Режиссер: Борис Хлебников
В ролях: Александр Робак, Максим Лагашкин, Анна Михалкова, Анна Котова, Геннадий Смирнов, Михаил Брашинский, Илья Борисов, Дмитрий Лысенков, Александр Мосин, Дарья Жовнер, Сергей Уманов, Валерий Дьяченко, Мария Антонова (II), Егор Пчёлкин

О фильме: В центре сюжета – двое друзей, Юрий Осокин и Сергей Градов. Первый работает в убойном отделе полиции, второй – в отделе по борьбе с коррупцией. Чтобы спасти жену от смертельной болезни и найти деньги на дорогостоящую операцию, Градов идет на должностные преступления и пытается скрыть улики. Изворотливый ум и талант выстраивать сложные многоходовые схемы делают его практически неуловимым. Расследующий череду преступлений Осокин начинает догадываться, что к делу причастен Градов, хотя достаточных доказательств у него пока нет. Для Юрия становится делом чести изобличить своего друга.

Качество: WEBRip
Видео: XviD build 73, 720x400 (16:9), 23.976 fps, ~ 1370 Kbps (~ 0.198 bit/pixel)
Аудио: 48.0 kHz, AC3, 2/0 ch, 192 kbps
Продолжительность: 8 х ~ 00:48:00
Перевод: Не требуется [Русский]
Cубтитры: нет

Релиз:


[+] MediaInfo
General
Complete name               : D:RazdachiShtorm.2019.WEBRip.GeneralFilmShtorm.e02.avi
Format                      : AVI
Format/Info                 : Audio Video Interleave
File size                   : 557 MiB
Duration                    : 49 min 33 s
Overall bit rate            : 1 571 kb/s
Writing application         : VirtualDubMod 1.5.10.3 | www.virtualdub-fr.org || (build 2550/release)
Writing library             : VirtualDubMod build 2550/release

Video
ID                          : 0
Format                      : MPEG-4 Visual
Format profile              : Advanced Simple@L5
Format settings             : BVOP1 / Custom Matrix
Format settings, BVOP       : 1
Format settings, QPel       : No
Format settings, GMC        : No warppoints
Format settings, Matrix     : Custom
Codec ID                    : XVID
Codec ID/Hint               : XviD
Duration                    : 49 min 33 s
Bit rate                    : 1 370 kb/s
Width                       : 720 pixels
Height                      : 400 pixels
Display aspect ratio        : 16:9
Frame rate                  : 23.976 (24000/1001) FPS
Color space                 : YUV
Chroma subsampling          : 4:2:0
Bit depth                   : 8 bits
Scan type                   : Progressive
Compression mode            : Lossy
Bits/(Pixel*Frame)          : 0.198
Stream size                 : 486 MiB (87%)
Writing library             : XviD 73

Audio
ID                          : 1
Format                      : AC-3
Format/Info                 : Audio Coding 3
Commercial name             : Dolby Digital
Codec ID                    : 2000
Duration                    : 49 min 33 s
Bit rate mode               : Constant
Bit rate                    : 192 kb/s
Channel(s)                  : 2 channels
Channel layout              : L R
Sampling rate               : 48.0 kHz
Frame rate                  : 31.250 FPS (1536 SPF)
Bit depth                   : 16 bits
Compression mode            : Lossy
Stream size                 : 68.1 MiB (12%)
Alignment                   : Split accross interleaves
Interleave, duration        : 42  ms (1.00 video frame)
Interleave, preload duratio : 500  ms
Service kind                : Complete Main



Скриншоты:
[+] Всего файлов в раздаче - 8:
Shtorm.e08.avi744.09 MB
Shtorm.e04.avi558.08 MB
Shtorm.e03.avi556.77 MB
Shtorm.e02.avi557.09 MB
Shtorm.e01.avi557.98 MB
Shtorm.e07.avi557.55 MB
Shtorm.e05.avi557.79 MB
Shtorm.e06.avi557.76 MB

Похожие раздачи по запросу - шторм:
2020-03-10 U Шторм [01-08 из 08] (2019) WEB-DLRip от GeneralFilm 5.57 GB ↑ 72 ↓ 23

Отзывы
Зарегистрируйтесь чтобы добавить комментарий.
Обратная связь
Copyleft ©