↑↓torrent.by
Поиск
Логин: Регистрация
Пароль: Восстановить пароль

Тайная жизнь домашних животных 2 / The Secret Life of Pets 2 (2019) BDRip-AVC от OlLanDGroup | Лицензия

Скачать taynaya-zhizn-domashnih-zhivotnyh-2-the-secret-life-of-pets-2019-bdrip-avc-ot-ollandgroup-licenziya.torrent
U Магнитная ссылка Размер: 745.84 MB Раздают: 140 Качают: 11 Добавлен: 2019-10-21 06:46:04
Тайная жизнь домашних животных 2 / The Secret Life of Pets 2 (2019) BDRip-AVC от OlLanDGroup | Лицензия

Информация
Название: Тайная жизнь домашних животных 2
Оригинальное название: The Secret Life of Pets 2
Год выпуска: 2019
Жанр:  Мультфильм, комедия, приключения, семейный
Режиссер: Крис Рено, Джонатан дель Валь
В ролях: Пэттон Освальт, Кевин Харт, Харрисон Форд, Эрик Стоунстрит, Дженни Слейт, Тиффани Хэддиш, Лэйк Белл, Дэна Карви, Бобби Мойнахан, Хэннибал Бёресс

Описание:
Макс уезжает с хозяйкой, мужем и ребёнком в гости на ранчо. Тем временем, в городе у Снежка и Гиджет свои приключения.

Страна: США, Франция, Япония
Студия: Illumination Entertainment, Universal Pictures
Продолжительность: 01:26:03
Перевод: Дублированный | Лицензия BD EUR

Файл
Кодек: MPEG-4 AVC
Качество: BDRip-AVC | BDRemux
Видео: 736x400 (1.85:1), 23.976 fps, x264 ~1 146 kbps avg, 0.162 bit/pixel
Аудио: 48 kHz, HE-AAC, 2 ch, ~64 kbps avg | RUS (Лицензия)
Субтитры: Русские (форс., полные), Английские (полные)

Релиз:


[+] MediaInfo
General
Unique ID : 217629131514461158029008201473902054298 (0xA3B9D89B05FB666F3517DAE14CA50B9A)
Complete name : D:OlLanDGroupThe Secret Life of Pets 2.BDRip(AVC).2019.OllanDGroup.mkv
Format : Matroska
Format version : Version 4
File size : 746 MiB
Duration : 1 h 26 min
Overall bit rate : 1 212 kb/s
Movie name : The Secret Life of Pets 2.BDRip(AVC).2019.OllanDGroup#Skandar2019#
Encoded date : UTC 2019-10-19 03:49:24
Writing application : mkvmerge v31.0.0 ('Dolores In A Shoestand') 64-bit
Writing library : libebml v1.3.6 + libmatroska v1.4.9

Video
ID : 1
Format : AVC
Format/Info : Advanced Video Codec
Format profile : High@L4.1
Format settings : CABAC / 10 Ref Frames
Format settings, CABAC : Yes
Format settings, ReFrames : 10 frames
Codec ID : V_MPEG4/ISO/AVC
Duration : 1 h 26 min
Bit rate : 1 146 kb/s
Width : 736 pixels
Height : 400 pixels
Display aspect ratio : 1.85:1
Frame rate mode : Constant
Frame rate : 23.976 (24000/1001) FPS
Color space : YUV
Chroma subsampling : 4:2:0
Bit depth : 8 bits
Scan type : Progressive
Bits/(Pixel*Frame) : 0.162
Stream size : 705 MiB (95%)
Title : The Secret Life of Pets 2.BDRip(AVC).2019.OllanDGroup#Skandar2019#
Writing library : x264 core 146 r2538 121396c
Encoding settings : cabac=1 / ref=10 / deblock=1:-3:-3 / analyse=0x3:0x133 / me=umh / subme=11 / psy=1 / psy_rd=0.97:0.05 / mixed_ref=1 / me_range=48 / chroma_me=1 / trellis=2 / 8x8dct=1 / cqm=0 / deadzone=21,11 / fast_pskip=0 / chroma_qp_offset=-3 / threads=6 / lookahead_threads=1 / sliced_threads=0 / nr=0 / decimate=0 / interlaced=0 / bluray_compat=0 / constrained_intra=0 / bframes=11 / b_pyramid=2 / b_adapt=2 / b_bias=0 / direct=3 / weightb=1 / open_gop=0 / weightp=2 / keyint=240 / keyint_min=23 / scenecut=40 / intra_refresh=0 / rc_lookahead=40 / rc=2pass / mbtree=0 / bitrate=1146 / ratetol=1.0 / qcomp=0.60 / qpmin=0 / qpmax=69 / qpstep=4 / cplxblur=20.0 / qblur=0.5 / vbv_maxrate=50000 / vbv_bufsize=62500 / nal_hrd=none / filler=0 / ip_ratio=1.40 / pb_ratio=1.30 / aq=1:1.00
Language : Russian
Default : Yes
Forced : No

Audio
ID : 2
Format : AAC LC SBR
Format/Info : Advanced Audio Codec Low Complexity with Spectral Band Replication
Commercial name : HE-AAC
Format settings : Explicit
Codec ID : A_AAC-2
Duration : 1 h 26 min
Bit rate : 64.0 kb/s
Channel(s) : 2 channels
Channel layout : L R
Sampling rate : 48.0 kHz
Frame rate : 23.438 FPS (2048 SPF)
Compression mode : Lossy
Delay relative to video : 40 ms
Stream size : 39.4 MiB (5%)
Title : Dub [License]
Language : Russian
Default : Yes
Forced : No

Text #1
ID : 3
Format : UTF-8
Codec ID : S_TEXT/UTF8
Codec ID/Info : UTF-8 Plain Text
Duration : 1 h 1 min
Bit rate : 0 b/s
Count of elements : 8
Stream size : 266 Bytes (0%)
Title : Forced
Language : Russian
Default : Yes
Forced : Yes

Text #2
ID : 4
Format : UTF-8
Codec ID : S_TEXT/UTF8
Codec ID/Info : UTF-8 Plain Text
Duration : 1 h 24 min
Bit rate : 60 b/s
Count of elements : 1093
Stream size : 37.4 KiB (0%)
Title : Full
Language : Russian
Default : No
Forced : No

Text #3
ID : 5
Format : UTF-8
Codec ID : S_TEXT/UTF8
Codec ID/Info : UTF-8 Plain Text
Duration : 1 h 25 min
Bit rate : 53 b/s
Count of elements : 1324
Stream size : 33.3 KiB (0%)
Title : Full
Language : English
Default : No
Forced : No

Text #4
ID : 6
Format : UTF-8
Codec ID : S_TEXT/UTF8
Codec ID/Info : UTF-8 Plain Text
Duration : 1 h 25 min
Bit rate : 77 b/s
Count of elements : 1924
Stream size : 48.5 KiB (0%)
Title : SDH
Language : English
Default : No
Forced : No

Menu
00:00:00.000 : en:Chapter 01
00:05:34.542 : en:Chapter 02
00:10:07.815 : en:Chapter 03
00:13:26.305 : en:Chapter 04
00:16:39.790 : en:Chapter 05
00:19:56.945 : en:Chapter 06
00:24:10.073 : en:Chapter 07
00:28:15.735 : en:Chapter 08
00:30:54.269 : en:Chapter 09
00:35:15.113 : en:Chapter 10
00:39:55.976 : en:Chapter 11
00:45:47.327 : en:Chapter 12
00:49:51.822 : en:Chapter 13
00:56:54.994 : en:Chapter 14
00:58:35.220 : en:Chapter 15
01:02:48.931 : en:Chapter 16
01:07:16.615 : en:Chapter 17
01:12:48.822 : en:Chapter 18
01:15:21.808 : en:Chapter 19
01:18:10.018 : en:Chapter 20



Скриншоты:
[+] Всего файлов в раздаче - 1:
The Secret Life of Pets 2.BDRip(AVC).2019.OllanDGroup.mkv745.84 MB

Показать еще раздачи по запросу тайная:
2020-04-09 U Тайная жизнь / A Hidden Life (2019) BDRip 1080p от селезень | D, P | iTunes 11.44 GB ↑ 148 ↓ 76
2020-03-09 U Тайная жизнь / A Hidden Life (2019) WEB-DLRip от MegaPeer | HDRezka Studio 2.18 GB ↑ 74 ↓ 28
2019-10-09 U Тайная жизнь домашних животных 2 / The Secret Life of Pets 2 (2019) BDRip 720p от селезень | D, P | Лицензия 4.91 GB ↑ 128 ↓ 47
2019-10-09 U Тайная жизнь домашних животных 2 / The Secret Life of Pets 2 (2019) BDRip-AVC от OlLanDGroup | D, P | Лицензия 1.94 GB ↑ 216 ↓ 57
2019-08-19 U Тайная жизнь домашних животных 2 / The Secret Life of Pets 2 (2019) BDRip от MegaPeer | HDRezka Studio 1.46 GB ↑ 95 ↓ 72
2019-01-20 U Наполеон Хилл, Джеймс Аллен, Бенджамин Франклин, Уоллес Уоттлз - Тайная наука богатеть. Секреты миллионеров и миллиардеров (2018) FB2 1.67 MB ↑ 105 ↓ 5
2017-10-09 U Тайная любовница / Une vieille maitresse (2007) WEB-DL 720p | P 3.34 GB ↑ 296 ↓ 65

Отзывы
Зарегистрируйтесь чтобы добавить комментарий.
Обратная связь
Copyleft ©