↑↓torrent.by
Поиск
Логин: Регистрация
Пароль: Восстановить пароль

Одесса (2018) WEB-DLRip-AVC от Files-x | iTunes

Скачать odessa-2018-web-dlrip-avc-ot-files-x-itunes.torrent
U Магнитная ссылка Размер: 1.46 GB Раздают: 441 Качают: 20 Добавлен: 2019-10-21 06:46:08
Одесса (2018) WEB-DLRip-AVC от Files-x | iTunes

Название: Одесса
Год выхода: 2018
Жанр:  Драма
Режиссер: Валерий Тодоровский
В ролях: Евгений Цыганов, Леонид Ярмольник, Ирина Розанова, Ксения Раппопорт, Евгения Брик, Вероника Устимова, Сергей Муравьёв, Владимир Кошевой, Степан Середа, Сергей Сосновский, Алёна Баркова, Михаил Шамигулов, Наталья Омельченко, Диана Манукян

О фильме: Одесса, август 1970 года. Самая жара. Город забит курортниками. В гости к тестю с тёщей, Григорию Иосифовичу и Раисе Ировне Давыдовым, прилетают из Москвы их зять Борис, журналист-международник, и его восьмилетний сын Валерик. Но именно в день их прилета в Одессе объявляют холерный карантин, город закрывают. Так приехавший на пару дней московский зять погружается в мир, измененный серьезной опасностью. Вскроются семейные тайны, произойдут невероятные события и случится большая запретная любовь.

Страна: Россия
Студия: Мосфильм, Мрмот-фильм, Продюсерская компания Валерия Тодоровского
Продолжительность: 02:09:46

Файл
Кодек: h.264
Качество: WEB-DLRip-AVC
Видео: MPEG-4 AVC, ~ 1223 Кбит/с, 1024x432, 24 кадр/с
Аудио: AC3, 6 ch, 384 Кбит/с
Язык: Русский [iTunes]
Субтитры: нет

Релиз:
[+] MI

General
Unique ID                                : 228122642772428329711860181268826792109 (0xAB9ED2A7A970C6F79278C1FCC939A0AD)
Complete name                            : F:Odessa.(2018).WEB-DLRip.(AVC).by.Серый1779.Files-x.mkv
Format                                   : Matroska
Format version                           : Version 2
File size                                : 1.46 GiB
Duration                                 : 2 h 9 min
Overall bit rate                         : 1 608 kb/s
Encoded date                             : UTC 2019-10-19 11:01:09
Writing application                      : mkvmerge v7.8.0 ('River Man') 32bit built on Apr  3 2015 12:11:22
Writing library                          : libebml v1.3.1 + libmatroska v1.4.2

Video
ID                                       : 1
Format                                   : AVC
Format/Info                              : Advanced Video Codec
Format profile                           : High@L4.1
Format settings                          : CABAC / 10 Ref Frames
Format settings, CABAC                   : Yes
Format settings, RefFrames               : 10 frames
Codec ID                                 : V_MPEG4/ISO/AVC
Duration                                 : 2 h 9 min
Bit rate                                 : 1 223 kb/s
Width                                    : 1 024 pixels
Height                                   : 432 pixels
Display aspect ratio                     : 2.40:1
Frame rate mode                          : Constant
Frame rate                               : 24.000 FPS
Color space                              : YUV
Chroma subsampling                       : 4:2:0
Bit depth                                : 8 bits
Scan type                                : Progressive
Bits/(Pixel*Frame)                       : 0.115
Stream size                              : 1.08 GiB (74%)
Writing library                          : x264 core 146 r2538 121396c
Encoding settings                        : cabac=1 / ref=10 / deblock=1:-2:-1 / analyse=0x3:0x133 / me=umh / subme=11 / psy=1 / psy_rd=1.00:0.08 / mixed_ref=1 / me_range=32 / chroma_me=1 / trellis=2 / 8x8dct=1 / cqm=0 / deadzone=21,11 / fast_pskip=0 / chroma_qp_offset=-3 / threads=18 / lookahead_threads=3 / sliced_threads=0 / nr=0 / decimate=1 / interlaced=0 / bluray_compat=0 / constrained_intra=0 / bframes=11 / b_pyramid=2 / b_adapt=2 / b_bias=0 / direct=1 / weightb=1 / open_gop=0 / weightp=2 / keyint=250 / keyint_min=23 / scenecut=40 / intra_refresh=0 / rc=2pass / mbtree=0 / bitrate=1223 / ratetol=1.0 / qcomp=0.60 / qpmin=0 / qpmax=69 / qpstep=4 / cplxblur=20.0 / qblur=0.5 / ip_ratio=1.40 / pb_ratio=1.30 / aq=2:1.00
Default                                  : Yes
Forced                                   : No
Color range                              : Limited
Color primaries                          : BT.709
Transfer characteristics                 : BT.709
Matrix coefficients                      : BT.709

Audio
ID                                       : 2
Format                                   : AC-3
Format/Info                              : Audio Coding 3
Format settings, Endianness              : Big
Codec ID                                 : A_AC3
Duration                                 : 2 h 9 min
Bit rate mode                            : Constant
Bit rate                                 : 384 kb/s
Channel(s)                               : 6 channels
Channel positions                        : Front: L C R, Side: L R, LFE
Sampling rate                            : 48.0 kHz
Frame rate                               : 31.250 FPS (1536 SPF)
Bit depth                                : 16 bits
Compression mode                         : Lossy
Stream size                              : 356 MiB (24%)
Service kind                             : Complete Main
Default                                  : Yes
Forced                                   : No



Скриншоты:
[+] Всего файлов в раздаче - 1:
Odessa.(2018).WEB-DLRip.(AVC).by.Серый1779.Files-x.mkv1.46 GB

Похожие раздачи по запросу - одесса:
2021-01-21 U Зиновий Высоковский - Говорит Одесса (2006) MP3 508.99 MB ↑ 92 ↓ 11
2021-01-12 U Одесса-мама / Жемчужина у моря [01-12 из 12] (2012) WEBRip 1080p 18.18 GB ↑ 103 ↓ 110

Отзывы
Зарегистрируйтесь чтобы добавить комментарий.
Загрузите программу
  uTorrent.exe
Обратная связь
Copyleft ©