↑↓torrent.by
Поиск
Логин: Регистрация
Пароль: Восстановить пароль

Человек-паук: Вдали от дома / Spider-Man: Far from Home (2019) BDRip 1080p от селезень | D, P | Лицензия

Скачать chelovek-pauk-vdali-ot-doma-spider-man-far-from-home-2019-bdrip-1080p-selezen-d-p-licenziya.torrent
U Магнитная ссылка Размер: 8.25 GB Раздают: 115 Качают: 34 Добавлен: 2019-10-23 11:58:02
Человек-паук: Вдали от дома / Spider-Man: Far from Home (2019) BDRip 1080p от селезень | D, P | Лицензия

Название: Человек-паук: Вдали от дома
Оригинальное название: Spider-Man: Far from Home
Год выхода: 2019
Жанр: Фантастика, боевик, приключения
Режиссер: Джон Уоттс
В ролях: Том Холланд (II), Зендая Колеман, Энгаури Райс, Джон Фавро, Джейк Джилленхол, Сэмюэл Л. Джексон, Коби Смолдерс, Мариса Томей, Мартин Старр, Нуман Аджар, Джейкоб Баталон, Тони Револори

О фильме: Питер Паркер вместе с друзьями отправляется на летние каникулы в Европу. Однако отдохнуть приятелям вряд ли удастся - Питеру придется согласиться помочь Нику Фьюри раскрыть тайну существ, вызывающих стихийные бедствия и разрушения по всему континенту.

Страна: США
Студия: Columbia Pictures, Marvel Studios, Pascal Pictures
Продолжительность: 02:09:23
Перевод(ы):
#1: Дублированный | Лицензия
#2: Профессиональный многоголосый | HDRezka Studio

Качество: BDRip 1080p
Видео: MPEG-4 AVC, 1920x804, 7493 Kbit/s, 23.976 fps
Аудио #01: 48 kHz, AC3, 5.1, 640 Kbps | Лицензия | RUS |
Аудио #02: 48 kHz, AC3, 2.0, 192 Kbps | HDRezka Studio | RUS |
Аудио #03: 48 kHz, AC3, 2.0, 160 Kbps | iTunes | UKR |
Аудио #04: 48 kHz, AC3, 5.1, 640 Kbps | Оригинал |  ENG |
Субтитры: Русские (Forced, 2 x full), украинские (Full), английские

Релиз:


[+] MI
General
Unique ID                   : 162137718327632907136497387015411726299 (0x79FA96B401A9A66732F82E42EF81F7DB)
Complete name               : D:Video111Spider-Man.Far.from.Home.2019.Lic.BDRip.1080p.seleZen.mkv
Format                      : Matroska
Format version              : Version 4
File size                   : 8.25 GiB
Duration                    : 2 h 9 min
Overall bit rate            : 9 131 kb/s
Movie name                  : Spider Man Far from Home 2019 from селезень
Encoded date                : UTC 2019-10-22 22:24:05
Writing application         : mkvmerge v22.0.0 ('At The End Of The World') 64-bit
Writing library             : libebml v1.3.5 + libmatroska v1.4.8

Video
ID                          : 1
Format                      : AVC
Format/Info                 : Advanced Video Codec
Format profile              : High@L4.1
Format settings             : CABAC / 5 Ref Frames
Format settings, CABAC      : Yes
Format settings, Reference  : 5 frames
Codec ID                    : V_MPEG4/ISO/AVC
Duration                    : 2 h 9 min
Bit rate                    : 7 493 kb/s
Width                       : 1 920 pixels
Height                      : 804 pixels
Display aspect ratio        : 2.40:1
Frame rate mode             : Constant
Frame rate                  : 23.976 (24000/1001) FPS
Color space                 : YUV
Chroma subsampling          : 4:2:0
Bit depth                   : 8 bits
Scan type                   : Progressive
Bits/(Pixel*Frame)          : 0.202
Stream size                 : 6.77 GiB (82%)
Title                       : Encoded by seleZen
Writing library             : x264 core 148 r2705kMod 3f5ed56
Encoding settings           : cabac=1 / ref=5 / deblock=1:-2:-2 / analyse=0x3:0x113 / me=umh / subme=11 / psy=1 / fade_compensate=0.00 / psy_rd=1.01:0.02 / mixed_ref=1 / me_range=48 / chroma_me=1 / trellis=2 / 8x8dct=1 / cqm=0 / deadzone=21,11 / fast_pskip=0 / chroma_qp_offset=-3 / threads=24 / lookahead_threads=4 / sliced_threads=0 / nr=0 / decimate=0 / interlaced=0 / bluray_compat=0 / constrained_intra=0 / fgo=0 / bframes=9 / b_pyramid=2 / b_adapt=2 / b_bias=0 / direct=3 / weightb=1 / open_gop=0 / weightp=2 / keyint=240 / keyint_min=23 / scenecut=40 / intra_refresh=0 / rc_lookahead=50 / rc=2pass / mbtree=0 / bitrate=7493 / ratetol=1.0 / qcomp=0.60 / qpmin=0 / qpmax=51 / qpstep=4 / cplxblur=20.0 / qblur=0.5 / vbv_maxrate=50000 / vbv_bufsize=62500 / nal_hrd=none / filler=0 / ip_ratio=1.40 / pb_ratio=1.30 / aq=3:0.80
Language                    : English
Default                     : Yes
Forced                      : No

Audio #1
ID                          : 2
Format                      : AC-3
Format/Info                 : Audio Coding 3
Commercial name             : Dolby Digital
Codec ID                    : A_AC3
Duration                    : 2 h 9 min
Bit rate mode               : Constant
Bit rate                    : 640 kb/s
Channel(s)                  : 6 channels
Channel layout              : L R C LFE Ls Rs
Sampling rate               : 48.0 kHz
Frame rate                  : 31.250 FPS (1536 SPF)
Bit depth                   : 16 bits
Compression mode            : Lossy
Stream size                 : 592 MiB (7%)
Title                       : Dub [License]
Language                    : Russian
Service kind                : Complete Main
Default                     : Yes
Forced                      : Yes

Audio #2
ID                          : 3
Format                      : AC-3
Format/Info                 : Audio Coding 3
Commercial name             : Dolby Digital
Codec ID                    : A_AC3
Duration                    : 2 h 9 min
Bit rate mode               : Constant
Bit rate                    : 192 kb/s
Channel(s)                  : 2 channels
Channel layout              : L R
Sampling rate               : 48.0 kHz
Frame rate                  : 31.250 FPS (1536 SPF)
Bit depth                   : 16 bits
Compression mode            : Lossy
Stream size                 : 178 MiB (2%)
Title                       : MVO [HDRezka Studio]
Language                    : Russian
Service kind                : Complete Main
Default                     : No
Forced                      : No

Audio #3
ID                          : 4
Format                      : AC-3
Format/Info                 : Audio Coding 3
Commercial name             : Dolby Digital
Codec ID                    : A_AC3
Duration                    : 2 h 9 min
Bit rate mode               : Constant
Bit rate                    : 160 kb/s
Channel(s)                  : 2 channels
Channel layout              : L R
Sampling rate               : 48.0 kHz
Frame rate                  : 31.250 FPS (1536 SPF)
Bit depth                   : 16 bits
Compression mode            : Lossy
Stream size                 : 148 MiB (2%)
Title                       : Dub
Language                    : Ukrainian
Service kind                : Complete Main
Default                     : No
Forced                      : No

Audio #4
ID                          : 5
Format                      : AC-3
Format/Info                 : Audio Coding 3
Commercial name             : Dolby Digital
Codec ID                    : A_AC3
Duration                    : 2 h 9 min
Bit rate mode               : Constant
Bit rate                    : 640 kb/s
Channel(s)                  : 6 channels
Channel layout              : L R C LFE Ls Rs
Sampling rate               : 48.0 kHz
Frame rate                  : 31.250 FPS (1536 SPF)
Bit depth                   : 16 bits
Compression mode            : Lossy
Stream size                 : 592 MiB (7%)
Title                       : Original
Language                    : English
Service kind                : Complete Main
Default                     : No
Forced                      : No

Text #1
ID                          : 6
Format                      : UTF-8
Codec ID                    : S_TEXT/UTF8
Codec ID/Info               : UTF-8 Plain Text
Duration                    : 2 h 8 min
Bit rate                    : 0 b/s
Count of elements           : 13
Stream size                 : 582 Bytes (0%)
Title                       : Forced
Language                    : Russian
Default                     : Yes
Forced                      : Yes

Text #2
ID                          : 7
Format                      : UTF-8
Codec ID                    : S_TEXT/UTF8
Codec ID/Info               : UTF-8 Plain Text
Duration                    : 2 h 8 min
Bit rate                    : 92 b/s
Count of elements           : 1666
Stream size                 : 86.8 KiB (0%)
Title                       : Full
Language                    : Russian
Default                     : No
Forced                      : No

Text #3
ID                          : 8
Format                      : UTF-8
Codec ID                    : S_TEXT/UTF8
Codec ID/Info               : UTF-8 Plain Text
Duration                    : 2 h 8 min
Bit rate                    : 92 b/s
Count of elements           : 1666
Stream size                 : 86.8 KiB (0%)
Title                       : Full [Елена, Лев Вержбицкие]
Language                    : Russian
Default                     : No
Forced                      : No

Text #4
ID                          : 9
Format                      : UTF-8
Codec ID                    : S_TEXT/UTF8
Codec ID/Info               : UTF-8 Plain Text
Duration                    : 2 h 8 min
Bit rate                    : 94 b/s
Count of elements           : 1759
Stream size                 : 89.3 KiB (0%)
Title                       : Full
Language                    : Ukrainian
Default                     : No
Forced                      : No

Text #5
ID                          : 10
Format                      : UTF-8
Codec ID                    : S_TEXT/UTF8
Codec ID/Info               : UTF-8 Plain Text
Duration                    : 2 h 7 min
Bit rate                    : 62 b/s
Count of elements           : 1749
Stream size                 : 58.2 KiB (0%)
Title                       : Full
Language                    : English
Default                     : No
Forced                      : No

Text #6
ID                          : 11
Format                      : UTF-8
Codec ID                    : S_TEXT/UTF8
Codec ID/Info               : UTF-8 Plain Text
Duration                    : 2 h 8 min
Bit rate                    : 68 b/s
Count of elements           : 1929
Stream size                 : 64.0 KiB (0%)
Title                       : SDH
Language                    : English
Default                     : No
Forced                      : No

Menu
00:00:00.000                : en:00:00:00.000
00:09:35.033                : en:00:09:35.033
00:16:06.716                : en:00:16:06.716
00:25:18.475                : en:00:25:18.475
00:35:26.499                : en:00:35:26.499
00:41:57.014                : en:00:41:57.014
00:49:50.029                : en:00:49:50.029
00:57:09.509                : en:00:57:09.509
01:04:50.637                : en:01:04:50.637
01:15:57.219                : en:01:15:57.219
01:22:49.089                : en:01:22:49.089
01:29:25.193                : en:01:29:25.193
01:36:43.256                : en:01:36:43.256
01:44:47.364                : en:01:44:47.364
01:52:17.397                : en:01:52:17.397
01:57:45.433                : en:01:57:45.433



Скриншоты:
[+] Всего файлов в раздаче - 1:
Spider-Man.Far.from.Home.2019.Lic.BDRip.1080p.seleZen.mkv8.25 GB

Показать еще раздачи по запросу человек:
2020-03-28 U Человек-невидимка / The Invisible Man (2020) WEB-DLRip от MegaPeer | iTunes 1.46 GB ↑ 82 ↓ 66
2020-03-28 U Человек-невидимка / The Invisible Man (2020) WEB-DLRip от MegaPeer | D, P | iTunes 2.18 GB ↑ 147 ↓ 48
2020-03-28 U Человек-невидимка / The Invisible Man (2020) WEB-DLRip-AVC | iTunes 744.69 MB ↑ 59 ↓ 12
2020-03-27 U Человек-невидимка / The Invisible Man (2020) WEB-DL 1080p | D, P | iTunes 8.57 GB ↑ 391 ↓ 433
2020-03-27 U Человек-невидимка / The Invisible Man (2020) WEB-DLRip | iTunes 1.46 GB ↑ 1932 ↓ 956
2020-03-27 U Человек-невидимка / The Invisible Man (2020) WEB-DL 1080p | iTunes 4.34 GB ↑ 2547 ↓ 1675
2020-03-26 U Человек-невидимка / The Invisible Man (2020) WEB-DLRip-AVC | HDrezka Studio 744.70 MB ↑ 51 ↓ 13

Отзывы
Зарегистрируйтесь чтобы добавить комментарий.
Обратная связь
Copyleft ©