↑↓Torrent.by
Поиск
Логин: Регистрация
Пароль: Восстановить пароль

Джей в Голливуде / Madness in the Method (2019) WEB-DL 1080p | iTunes

Скачать dzhey-v-gollivude-madness-in-the-method-2019-web-dl-1080p-itunes.torrent
U Магнитная ссылка Размер: 3.71 GB Раздают: 101 Качают: 69 Добавлен: 2019-10-24 10:56:34
Джей в Голливуде / Madness in the Method (2019) WEB-DL 1080p | iTunes

Название: Madness in the Method
Оригинальное название: Boonie Bears: Entangled Worlds
Год выхода: 2019
Жанр: Комедия, криминал
Режиссер: Джейсон Мьюз
В ролях: Джейсон Мьюз, Кевин Смит, Джина Карано, Хайме Камиль, Винни Джонс, Дэнни Трехо, Мики Гуч мл., Стэн Ли, Брайан О'Хэллоран, Тери Хэтчер

О фильме:
В альтернативной реальности кинозвезда Кевин Смит раскрывает своему приятелю Джейсону Мьюзу секрет успеха в Голливуде, чтобы тот избавился от вечного амплуа комедианта. Проблемы начинаются, когда Джейсон слишком рьяно следует его методике и начинает играть слишком хорошо, доводя себя до безумия.

Страна: США
Студия: Autumnwood Media, Happy Hour Films, Hawthorn Productions, Red Rock Entertainment, Straightwire Films
Продолжительность: 01:39:16
Перевод:
• Профессиональный (полное дублирование) | iTunes

Файл
Качество: WEB-DL 1080p
Формат: MKV
Кодек: MPEG-4 AVC
Видео: 1916x800 (2,40:1), 23,976 fps, MPEG-4 AVC ~ 4577 Kbps avg, 0.125 bit/pixel
Аудио: AC3, 48 kHz, 6 ch, ~384.00 kbps avg | русский | iTunes
Аудио: AC3, 48 kHz, 6 ch, ~384.00 kbps avg | английский | оригинал

Субтитры: Английские (Full)


[+] Инфо-файл
Общее
Уникальный идентификатор                 : 56104644552425112038615821201924509475 (0x2A355C8B0508E431E947FE0899B54F23)
Полное имя                               : D:MADNESS_IN_TNE_METHOD (2019) WEB-DL 1080p.mkv
Формат                                   : Matroska
Версия формата                           : Version 4 / Version 2
Размер файла                             : 3,71 Гбайт
Продолжительность                        : 1 ч. 39 м.
Общий поток                              : 5347 Кбит/сек
Название фильма                          : MADNESS_IN_TNE_METHOD (2019) WEB-DL 1080p
Дата кодирования                         : UTC 2019-10-24 06:49:25
Программа кодирования                    : mkvmerge v38.0.0 ('The Silent Type') 64-bit
Библиотека кодирования                   : libebml v1.3.9 + libmatroska v1.5.2

Видео
Идентификатор                            : 1
Формат                                   : AVC
Формат/Информация                        : Advanced Video Codec
Профиль формата                          : High@L4
Настройки формата                        : CABAC / 5 Ref Frames
Параметр CABAC формата                   : Да
Параметр RefFrames формата               : 5 кадров
Идентификатор кодека                     : V_MPEG4/ISO/AVC
Продолжительность                        : 1 ч. 39 м.
Битрейт                                  : 4577 Кбит/сек
Ширина                                   : 1916 пикселей
Высота                                   : 800 пикселей
Соотношение сторон                       : 2,40:1
Режим частоты кадров                     : Постоянный
Частота кадров                           : 23,976 кадра/сек
Цветовое пространство                    : YUV
Субдискретизация насыщенности            : 4:2:0
Битовая глубина                          : 8 бит
Тип развёртки                            : Прогрессивная
Бит/(Пиксели*Кадры)                      : 0.125
Размер потока                            : 3,17 Гбайт (86%)
Заголовок                                : MADNESS_IN_TNE_METHOD (2019) WEB-DL 1080p
Язык                                     : English
Default                                  : Да
Forced                                   : Нет
Цветовой диапазон                        : Limited
Основные цвета                           : BT.709
Характеристики трансфера                 : BT.709
Коэффициенты матрицы                     : BT.709

Аудио #1
Идентификатор                            : 2
Формат                                   : AC-3
Формат/Информация                        : Audio Coding 3
Идентификатор кодека                     : A_AC3
Продолжительность                        : 1 ч. 39 м.
Вид битрейта                             : Постоянный
Битрейт                                  : 384 Кбит/сек
Каналы                                   : 6 каналов
Расположение каналов                     : Front: L C R, Side: L R, LFE
Частота                                  : 48,0 КГц
Частота кадров                           : 31,250 кадров/сек (1536 SPF)
Битовая глубина                          : 16 бит
Метод сжатия                             : С потерями
Задержка видео                           : -42 мс.
Размер потока                            : 273 Мбайт (7%)
Заголовок                                : iTunes | MADNESS_IN_TNE_METHOD (2019) WEB-DL 1080p
Язык                                     : Russian
Default                                  : Да
Forced                                   : Нет

Аудио #2
Идентификатор                            : 3
Формат                                   : AC-3
Формат/Информация                        : Audio Coding 3
Идентификатор кодека                     : A_AC3
Продолжительность                        : 1 ч. 39 м.
Вид битрейта                             : Постоянный
Битрейт                                  : 384 Кбит/сек
Каналы                                   : 6 каналов
Расположение каналов                     : Front: L C R, Side: L R, LFE
Частота                                  : 48,0 КГц
Частота кадров                           : 31,250 кадров/сек (1536 SPF)
Битовая глубина                          : 16 бит
Метод сжатия                             : С потерями
Задержка видео                           : -42 мс.
Размер потока                            : 273 Мбайт (7%)
Заголовок                                : ORIGINAL
Язык                                     : English
Default                                  : Нет
Forced                                   : Нет

Текст
Идентификатор                            : 4
Формат                                   : UTF-8
Идентификатор кодека                     : S_TEXT/UTF8
Идентификатор кодека/Информация          : UTF-8 Plain Text
Продолжительность                        : 1 ч. 38 м.
Битрейт                                  : 125 бит/сек
ElementCount                             : 2356
Размер потока                            : 90,9 Кбайт (0%)
Заголовок                                : Full
Язык                                     : English
Default                                  : Нет
Forced                                   : Нет

Меню
00:00:00.000                             : en:Chapter 1
00:12:16.528                             : en:Chapter 2
00:24:48.905                             : en:Chapter 3
00:32:33.452                             : en:Chapter 4
00:47:04.697                             : en:Chapter 5
01:02:45.220                             : en:Chapter 6
01:14:18.996                             : en:Chapter 7
01:35:32.853                             : en:Chapter 8



Скриншоты:
[+] Всего файлов в раздаче - 1:
MADNESS_IN_TNE_METHOD (2019) WEB-DL 1080p.mkv3.71 GB

Похожие раздачи по запросу - джей:
2019-10-24 U Джей в Голливуде / Madness in the Method (2019) WEB-DLRip | iTunes 1.45 GB ↑ 217 ↓ 61

Отзывы
Зарегистрируйтесь чтобы добавить комментарий.
Обратная связь
Copyleft ©