↑↓Torrent.by
Поиск
Логин: Регистрация
Пароль: Восстановить пароль

Птичий дозор / Manou the Swift / Birds of a Feather (2019) BDRemux 1080p от селезень | iTunes

Скачать ptichiy-dozor-manou-the-swift-birds-of-a-feather-2019-bdremux-1080p-ot-selezen-itunes.torrent
U Магнитная ссылка Размер: 16.15 GB Раздают: 29 Качают: 7 Добавлен: 2019-10-26 04:24:24
Птичий дозор / Manou the Swift / Birds of a Feather (2019) BDRemux 1080p от селезень | iTunes

Название: Птичий дозор
Оригинальное название: Manou the Swift / Birds of a Feather
Год выхода: 2019
Жанр: Мультфильм, комедия, приключения, семейный, полнометражный
Режиссер: Кристиан Хаас, Андреа Блок
В ролях: Кейт Уинслет, Уиллем Дефо, Роб Полсен, Джошуа Китон, Джули Натансон, Дэвид Шонесси, Ариф С. Кинчен, Фридрих Мюке, Кассандра Стин, Доминик Кун

О фильме: Стриж Ману растет в семье чаек и изо всех сил пытается научиться плавать, ловить рыбу и летать так же, как и они. Но во время традиционного летнего состязания он понимает, что никогда не сможет стать чайкой. Раздосадованный Ману улетает из дома, где встречает новых друзей. Из-за этого портятся его отношения с родной стаей. Но тут в дело вмешивается случай. Ману, который вырос отважным как чайка и изобретательным как стриж, удается уберечь и чаек, и стрижей от надвигающейся опасности и стать героем в глазах и тех и других.

Страна: Германия
Студия: LUXX Film
Продолжительность: 01:28:36
Перевод: Дублированный | iTunes

Качество: BDRemux 1080p
Видео: MPEG-4 AVC, 1920x1080, 23.5 Mbit/s, 24 fps
Аудио #01: 48 kHz, AC3, 5.1, 384 Kbps | iTunes | RUS |
Аудио #02: 48 kHz, DTS-HD MA, 5.1, 2183 Kbps | Оригинал |  ENG |
Субтитры: Английские

Релиз:


[+] MI
General
Unique ID                   : 125553839961346429002126489415054108928 (0x5E74CA3D88BB57FAD27F6F618F0DA900)
Complete name               : D:Video111Manou.the.Swift.2019.BDREMUX.1080p.seleZen.mkv
Format                      : Matroska
Format version              : Version 4
File size                   : 16.2 GiB
Duration                    : 1 h 28 min
Overall bit rate mode       : Variable
Overall bit rate            : 26.1 Mb/s
Movie name                  : Manou the Swift 2019 from селезень
Encoded date                : UTC 2019-10-24 03:40:02
Writing application         : mkvmerge v22.0.0 ('At The End Of The World') 64-bit
Writing library             : libebml v1.3.5 + libmatroska v1.4.8

Video
ID                          : 1
Format                      : AVC
Format/Info                 : Advanced Video Codec
Format profile              : High@L4.1
Format settings             : CABAC / 2 Ref Frames
Format settings, CABAC      : Yes
Format settings, Reference  : 2 frames
Codec ID                    : V_MPEG4/ISO/AVC
Duration                    : 1 h 28 min
Bit rate mode               : Variable
Bit rate                    : 23.5 Mb/s
Maximum bit rate            : 35.2 Mb/s
Width                       : 1 920 pixels
Height                      : 1 080 pixels
Display aspect ratio        : 16:9
Frame rate mode             : Constant
Frame rate                  : 24.000 FPS
Color space                 : YUV
Chroma subsampling          : 4:2:0
Bit depth                   : 8 bits
Scan type                   : Progressive
Bits/(Pixel*Frame)          : 0.473
Stream size                 : 14.6 GiB (90%)
Language                    : German
Default                     : Yes
Forced                      : No

Audio #1
ID                          : 2
Format                      : AC-3
Format/Info                 : Audio Coding 3
Commercial name             : Dolby Digital
Codec ID                    : A_AC3
Duration                    : 1 h 28 min
Bit rate mode               : Constant
Bit rate                    : 384 kb/s
Channel(s)                  : 6 channels
Channel layout              : L R C LFE Ls Rs
Sampling rate               : 48.0 kHz
Frame rate                  : 31.250 FPS (1536 SPF)
Bit depth                   : 16 bits
Compression mode            : Lossy
Stream size                 : 243 MiB (1%)
Title                       : iTunes
Language                    : Russian
Service kind                : Complete Main
Default                     : Yes
Forced                      : Yes

Audio #2
ID                          : 3
Format                      : DTS XLL
Format/Info                 : Digital Theater Systems
Commercial name             : DTS-HD Master Audio
Codec ID                    : A_DTS
Duration                    : 1 h 28 min
Bit rate mode               : Variable
Bit rate                    : 2 183 kb/s
Channel(s)                  : 6 channels
Channel layout              : C L R Ls Rs LFE
Sampling rate               : 48.0 kHz
Frame rate                  : 93.750 FPS (512 SPF)
Bit depth                   : 16 bits
Compression mode            : Lossless
Stream size                 : 1.35 GiB (8%)
Title                       : Original
Language                    : English
Default                     : No
Forced                      : No

Text
ID                          : 4
Format                      : UTF-8
Codec ID                    : S_TEXT/UTF8
Codec ID/Info               : UTF-8 Plain Text
Duration                    : 1 h 27 min
Bit rate                    : 33 b/s
Count of elements           : 866
Stream size                 : 21.5 KiB (0%)
Title                       : Original
Language                    : English
Default                     : No
Forced                      : No

Menu
00:00:00.000                : de:00:00:00.000
00:06:57.625                : de:00:06:57.625
00:14:10.375                : de:00:14:10.375
00:22:33.333                : de:00:22:33.333
00:31:38.833                : de:00:31:38.833
00:36:06.792                : de:00:36:06.792
00:43:52.833                : de:00:43:52.833
00:52:12.792                : de:00:52:12.792
00:59:52.917                : de:00:59:52.917
01:07:00.708                : de:01:07:00.708
01:14:10.208                : de:01:14:10.208
01:21:52.208                : de:01:21:52.208



Скриншоты:
[+] Всего файлов в раздаче - 1:
Manou.the.Swift.2019.BDREMUX.1080p.seleZen.mkv16.15 GB

Показать еще раздачи по запросу птичий:
2019-10-26 U Птичий дозор / Manou the Swift / Birds of a Feather (2019) BDRip 720p от SuperMin | D | iTunes 3.61 GB ↑ 88 ↓ 57
2019-10-26 U Птичий дозор / Manou the Swift / Birds of a Feather (2019) BDRip от Twister & ExKinoRay | iTunes 1.42 GB ↑ 26 ↓ 3
2019-10-25 U Птичий дозор / Manou the Swift (2019) BDRip-AVC от OlLanDGroup | iTunes 1.56 GB ↑ 84 ↓ 11
2019-10-24 U Птичий дозор / Manou the Swift / Birds of a Feather (2019) BDRip 1080p от селезень | iTunes 7.91 GB ↑ 404 ↓ 289
2019-10-24 U Птичий дозор / Manou the Swift / Birds of a Feather (2019) BDRip от MegaPeer | iTunes 1.42 GB ↑ 652 ↓ 286
2019-01-02 U Птичий короб / Bird Box (2018) WEBRip-AVC от OlLanDGroup | Невафильм 2.32 GB ↑ 144 ↓ 61
2018-12-19 U Птичий короб / Bird Box (2018) WEB-DLRip от Dalemake | L2 1.46 GB ↑ 373 ↓ 112

Отзывы
Зарегистрируйтесь чтобы добавить комментарий.
Обратная связь
Copyleft ©