↑↓Torrent.by
Поиск
Логин: Регистрация
Пароль: Восстановить пароль

Птичий дозор / Manou the Swift / Birds of a Feather (2019) BDRip 720p от SuperMin | D | iTunes

Скачать ptichiy-dozor-manou-the-swift-birds-of-a-feather-2019-bdrip-720p-ot-supermin-d-itunes.torrent
U Магнитная ссылка Размер: 3.61 GB Раздают: 88 Качают: 57 Добавлен: 2019-10-26 15:36:37
Птичий дозор / Manou the Swift / Birds of a Feather (2019) BDRip 720p от SuperMin | D | iTunes

Название: Птичий дозор
Оригинальное название: Manou the Swift / Birds of a Feather
Год выхода: 2019
Жанр:  Мультфильм, комедия, приключения
Режиссер: Кристиан Хаас, Андреа Блок
В ролях: Кейт Уинслет, Уиллем Дефо, Роб Полсен, Джошуа Китон, Джули Натансон, Дэвид Шонесси, Ариф С. Кинчен, Фридрих Мюке, Кассандра Стин, Доминик Кун

Стриж Ману растет в семье чаек и изо всех сил пытается научиться плавать, ловить рыбу и летать так же, как и они. Но во время традиционного летнего состязания он понимает, что никогда не сможет стать чайкой. Раздосадованный Ману улетает из дома, где встречает новых друзей. Из-за этого портятся его отношения с родной стаей. Но тут в дело вмешивается случай. Ману, который вырос отважным как чайка и изобретательным как стриж, удается уберечь и чаек, и стрижей от надвигающейся опасности и стать героем в глазах и тех и других.

Страна: Германия
Студия:LUXX Film
Продолжительность: 01:28:36
Перевод: Дубляж

Файл
Кодек: H.264
Качество: BDRip 720p от SuperMin
Видео: 1280x720 (16:9), 4813 kbps, 23.976 fps
Звук: Русский (AC-3, 6ch, 384 kbps)
Английский (AC-3, 6ch, 640 kbps)
Субтитры: английские


[+] MI
General
Unique ID                   : 114702445151799798371750494243940088068 (0x564AE32B6A8BD110D352080503B23904)
Complete name               : F:МУЛЬТЫПтичий дозор. BDrip-720.mkv
Format                      : Matroska
Format version              : Version 4
File size                   : 3.61 GiB
Duration                    : 1 h 28 min
Overall bit rate            : 5 839 kb/s
Movie name                  : Птичий дозор / Manou the Swift (2019) - #LORDKILL#
Encoded date                : UTC 2019-10-26 03:43:32
Writing application         : mkvmerge v32.0.0 ('Astral Progressions') 64-bit
Writing library             : libebml v1.3.7 + libmatroska v1.5.0

Video
ID                          : 1
Format                      : AVC
Format/Info                 : Advanced Video Codec
Format profile              : High@L4.1
Format settings             : CABAC / 9 Ref Frames
Format settings, CABAC      : Yes
Format settings, Reference  : 9 frames
Codec ID                    : V_MPEG4/ISO/AVC
Duration                    : 1 h 28 min
Bit rate                    : 4 813 kb/s
Width                       : 1 280 pixels
Height                      : 720 pixels
Display aspect ratio        : 16:9
Frame rate mode             : Constant
Frame rate                  : 24.000 FPS
Color space                 : YUV
Chroma subsampling          : 4:2:0
Bit depth                   : 8 bits
Scan type                   : Progressive
Bits/(Pixel*Frame)          : 0.218
Stream size                 : 2.98 GiB (82%)
Writing library             : x264 core 146 r2538 121396c
Encoding settings           : cabac=1 / ref=9 / deblock=1:-2:-2 / analyse=0x3:0x113 / me=umh / subme=11 / psy=1 / psy_rd=1.00:0.15 / mixed_ref=1 / me_range=32 / chroma_me=1 / trellis=2 / 8x8dct=1 / cqm=0 / deadzone=21,11 / fast_pskip=0 / chroma_qp_offset=-3 / threads=12 / lookahead_threads=2 / sliced_threads=0 / nr=0 / decimate=1 / interlaced=0 / bluray_compat=0 / constrained_intra=0 / bframes=8 / b_pyramid=2 / b_adapt=2 / b_bias=0 / direct=1 / weightb=1 / open_gop=0 / weightp=2 / keyint=240 / keyint_min=23 / scenecut=40 / intra_refresh=0 / rc=crf / mbtree=0 / crf=19.5 / qcomp=0.60 / qpmin=0 / qpmax=69 / qpstep=4 / ip_ratio=1.40 / pb_ratio=1.30 / aq=1:1.00
Language                    : English
Default                     : Yes
Forced                      : No

Audio #1
ID                          : 2
Format                      : AC-3
Format/Info                 : Audio Coding 3
Commercial name             : Dolby Digital
Codec ID                    : A_AC3
Duration                    : 1 h 28 min
Bit rate mode               : Constant
Bit rate                    : 384 kb/s
Channel(s)                  : 6 channels
Channel layout              : L R C LFE Ls Rs
Sampling rate               : 48.0 kHz
Frame rate                  : 31.250 FPS (1536 SPF)
Bit depth                   : 16 bits
Compression mode            : Lossy
Stream size                 : 243 MiB (7%)
Title                       : Дубляж - iTunes
Language                    : Russian
Service kind                : Complete Main
Default                     : Yes
Forced                      : Yes

Audio #2
ID                          : 3
Format                      : AC-3
Format/Info                 : Audio Coding 3
Commercial name             : Dolby Digital
Codec ID                    : A_AC3
Duration                    : 1 h 28 min
Bit rate mode               : Constant
Bit rate                    : 640 kb/s
Channel(s)                  : 6 channels
Channel layout              : L R C LFE Ls Rs
Sampling rate               : 48.0 kHz
Frame rate                  : 31.250 FPS (1536 SPF)
Bit depth                   : 16 bits
Compression mode            : Lossy
Stream size                 : 406 MiB (11%)
Language                    : English
Service kind                : Complete Main
Default                     : No
Forced                      : No

Text
ID                          : 4
Format                      : UTF-8
Codec ID                    : S_TEXT/UTF8
Codec ID/Info               : UTF-8 Plain Text
Duration                    : 1 h 27 min
Bit rate                    : 33 b/s
Count of elements           : 866
Stream size                 : 21.5 KiB (0%)
Title                       : Original
Language                    : English
Default                     : No
Forced                      : No

Menu
00:00:00.000                : de:00:00:00.000
00:06:57.625                : de:00:06:57.625
00:14:10.375                : de:00:14:10.375
00:22:33.333                : de:00:22:33.333
00:31:38.833                : de:00:31:38.833
00:36:06.792                : de:00:36:06.792
00:43:52.833                : de:00:43:52.833
00:52:12.792                : de:00:52:12.792
00:59:52.917                : de:00:59:52.917
01:07:00.708                : de:01:07:00.708
01:14:10.208                : de:01:14:10.208
01:21:52.208                : de:01:21:52.208



Скриншоты:
[+] Всего файлов в раздаче - 1:
Птичий дозор. BDrip-720.mkv3.61 GB

Показать еще раздачи по запросу птичий:
2019-10-26 U Птичий дозор / Manou the Swift / Birds of a Feather (2019) BDRip от Twister & ExKinoRay | iTunes 1.42 GB ↑ 26 ↓ 5
2019-10-26 U Птичий дозор / Manou the Swift / Birds of a Feather (2019) BDRemux 1080p от селезень | iTunes 16.15 GB ↑ 29 ↓ 7
2019-10-25 U Птичий дозор / Manou the Swift (2019) BDRip-AVC от OlLanDGroup | iTunes 1.56 GB ↑ 84 ↓ 11
2019-10-24 U Птичий дозор / Manou the Swift / Birds of a Feather (2019) BDRip 1080p от селезень | iTunes 7.91 GB ↑ 414 ↓ 289
2019-10-24 U Птичий дозор / Manou the Swift / Birds of a Feather (2019) BDRip от MegaPeer | iTunes 1.42 GB ↑ 655 ↓ 286
2019-01-02 U Птичий короб / Bird Box (2018) WEBRip-AVC от OlLanDGroup | Невафильм 2.32 GB ↑ 143 ↓ 62
2018-12-19 U Птичий короб / Bird Box (2018) WEB-DLRip от Dalemake | L2 1.46 GB ↑ 373 ↓ 112

Отзывы
Зарегистрируйтесь чтобы добавить комментарий.
Обратная связь
Copyleft ©