↑↓Torrent.by
Поиск
Логин: Регистрация
Пароль: Восстановить пароль

Почему вымерли неандертальцы? / Загадка исчезновения неандертальцев / Neanderthal Apocalypse [01-02 из 02] (2015) DVB | P1

Скачать pochemu-vymerli-neandertalcy-zagadka-ischeznoveniya-neandertalcev-neanderthal-apocalypse-01-02-iz-2015-dvb-p1.torrent
U Магнитная ссылка Размер: 1.44 GB Раздают: 36 Качают: 8 Добавлен: 2019-10-28 04:34:16
Почему вымерли неандертальцы? / Загадка исчезновения неандертальцев / Neanderthal Apocalypse [01-02 из 02] (2015) DVB | P1

Название: Почему вымерли неандертальцы? / Загадка исчезновения неандертальцев
Оригинальное название: Neanderthal Apocalypse
Год выхода: 2015
Жанр: Документальный, история, исследования, археология
Режиссер: Джейсон Лаванжи

О фильме:
40 000 лет назад в степях Евразии жил наш ближайший родственник - неандертальцы. Недавние генетические и археологические открытия доказали, что они не были глупыми обитателями пещер, о которых мы долго думали. На самом деле они были культурными, технологически подкованными и больше похожими на нас, чем мы могли себе представить! Так почему они исчезли? Ученые пришли к поразительному выводу.


Страна: Канада
Студия: C-Tales Entertainment, Story House Productions
Продолжительность: 2 x ~ 00:50:12
Перевод: Профессиональный (одноголосый закадровый) Видеофильм ТВ
Профессиональный (одноголосый закадровый) SDI Media

Файл
Кодек: AVC/H.264
Качество: DVB
Видео: 720x576@1047x576 (16:9) AVC (H.264) Main@L3.0, ~ 1649 kbps, 25fps
Звук:
Русский 48 kHz, AC3 Dolby Digital, 2/0 (L,R) ch, ~192.00 kbps avg ( Видеофильм ТВ )
Русский 48 kHz, AC3 Dolby Digital, 2/0 (L,R) ch, ~192.00 kbps avg ( SDI Media )

Семпл

Релиз от: kyba
[+] MediaInfo
Complete name               : F:НаладкиSD-фильмыПочему вымерли неандертальцы�1. Почему вымерли неандертальцы.mkv
Format                      : Matroska
Format version              : Version 4
File size                   : 731 MiB
Duration                    : 50 min 12 s
Overall bit rate            : 2 036 kb/s
Encoded date                : UTC 2019-08-04 17:43:29
Writing application         : mkvmerge v15.0.0 ('Duel with the Devil') 64-bit
Writing library             : libebml v1.3.5 + libmatroska v1.4.5

Video
ID                          : 1
Format                      : AVC
Format/Info                 : Advanced Video Codec
Format profile              : Main@L3
Format settings             : CABAC / 4 Ref Frames
Format settings, CABAC      : Yes
Format settings, Reference  : 4 frames
Codec ID                    : V_MPEG4/ISO/AVC
Duration                    : 50 min 11 s
Bit rate                    : 1 649 kb/s
Width                       : 720 pixels
Height                      : 576 pixels
Display aspect ratio        : 16:9
Frame rate mode             : Variable
Frame rate                  : 25.230 FPS
Original frame rate         : 25.000 FPS
Standard                    : Component
Color space                 : YUV
Chroma subsampling          : 4:2:0
Bit depth                   : 8 bits
Scan type                   : Interlaced
Scan type, store method     : Separated fields
Scan order                  : Top Field First
Bits/(Pixel*Frame)          : 0.158
Stream size                 : 592 MiB (81%)
Default                     : Yes
Forced                      : No
Color range                 : Limited
Color primaries             : BT.601 PAL
Transfer characteristics    : BT.470 System B/G
Matrix coefficients         : BT.470 System B/G

Audio #1
ID                          : 2
Format                      : AC-3
Format/Info                 : Audio Coding 3
Commercial name             : Dolby Digital
Codec ID                    : A_AC3
Duration                    : 50 min 11 s
Bit rate mode               : Constant
Bit rate                    : 192 kb/s
Channel(s)                  : 2 channels
Channel layout              : L R
Sampling rate               : 48.0 kHz
Frame rate                  : 31.250 FPS (1536 SPF)
Bit depth                   : 16 bits
Compression mode            : Lossy
Stream size                 : 68.9 MiB (9%)
Title                       : Видеофильм ТВ
Language                    : Russian
Service kind                : Complete Main
Default                     : Yes
Forced                      : Yes

Audio #2
ID                          : 3
Format                      : AC-3
Format/Info                 : Audio Coding 3
Commercial name             : Dolby Digital
Codec ID                    : A_AC3
Duration                    : 50 min 12 s
Bit rate mode               : Constant
Bit rate                    : 192 kb/s
Channel(s)                  : 2 channels
Channel layout              : L R
Sampling rate               : 48.0 kHz
Frame rate                  : 31.250 FPS (1536 SPF)
Bit depth                   : 16 bits
Compression mode            : Lossy
Stream size                 : 69.0 MiB (9%)
Title                       : SDI Media
Language                    : Russian
Service kind                : Complete Main
Default                     : No
Forced                      : No



Скриншоты:
[+] Всего файлов в раздаче - 2:
01. Почему вымерли неандертальцы.mkv731.21 MB
02. Почему вымерли неандертальцы.mkv740.41 MB

Похожие раздачи по запросу - почему:
2019-10-26 U Почему женщины убивают / Why Women Kill [S01] (2019) WEB-DLRip | LostFilm 7.08 GB ↑ 33 ↓ 10
2019-10-20 U Почему женщины убивают / Why Women Kill [S01] (2019) WEBRip | Gears Media 5.67 GB ↑ 95 ↓ 56
2018-09-27 U Майкл Гудвин, Дэн Бурр - Экономикс. Как работает экономика (и почему не работает) в словах и картинках (2017) PDF 48.73 MB ↑ 406 ↓ 22
2017-04-22 U Почему он? / Why Him? (2016) BDRip-AVC от ExKinoRay | Лицензия 2.59 GB ↑ 59 ↓ 24

Отзывы
Зарегистрируйтесь чтобы добавить комментарий.
Обратная связь
Copyleft ©