↑↓Torrent.by
Поиск
Логин: Регистрация
Пароль: Восстановить пароль

Angry Birds 2 в кино / The Angry Birds Movie 2 (2019) HDRip-AVC от OlLanDGroup | iTunes

Скачать angry-birds-2-v-kino-the-movie-2019-hdrip-avc-ot-ollandgroup-itunes.torrent
U Магнитная ссылка Размер: 745.99 MB Раздают: 84 Качают: 34 Добавлен: 2019-10-31 16:33:16
Angry Birds 2 в кино / The Angry Birds Movie 2 (2019) HDRip-AVC от OlLanDGroup | iTunes

Информация
Название: Angry Birds 2 в кино
Оригинальное название: The Angry Birds Movie 2
Год выпуска: 2019
Жанр: Мультфильм, комедия, приключения, семейный, полнометражный
Режиссер: Туроп Ван Орман, Джон Райс
В ролях: Аквафина, Дав Кэмерон, Билл Хэйдер, Дэнни Макбрайд, Питер Динклэйдж, Тиффани Хэддиш, Майя Рудольф, Джейсон Судейкис, Стерлинг К. Браун, Эухенио Дербес, Джош Гэд, Лесли Джонс, Рэйчел Блум

Описание:
Птицы узнали о существовании голодных зелёных свиней, после чего началась священная война, которая длилась многие годы. Однако теперь на горизонте появился новый враг — Зета, обитательница третьего, замёрзшего острова. Она считает, что все должны почувствовать на себе силу холода, и начинает атаку на дальних родственников, обитающих в тёплых краях. Теперь птицы и свиньи должны объединиться, чтобы остановить заморозки.

Страна: США, Финляндия
Студия: Rovio Animation, Sony Pictures Animation
Продолжительность: 01:36:47
Перевод: Дублированный | iTunes

Файл
Формат: MKV
Качество: HDRip-AVC | The.Angry.Birds.Movie.2.2019.BluRay.1080p.DTS-HDMA5.1.x264-CHD
Видео: 720x392 (1.85:1), 23.976 fps, x264 ~1 011 kbps avg, 0.149 bit/pixel
Звук: 48 kHz, HE-AAC, 2 ch, ~64 kbps avg | RUS
Субтитры: Русские (Forced, full), украинские (Full), английские

Релиз:


[+] MediaInfo:
General
Unique ID                      : 329374948627414907568978977984171189175 (0xF7CB4EC219FF15D10D7B0308EA33A3B7)
Complete name                  : D:OlLanDGroupiTunesThe.Angry.Birds.Movie.2.2019.HDRip(AVC).745Mb.OlLanDGroup.mkv
Format                         : Matroska
Format version                 : Version 4
File size                      : 746 MiB
Duration                       : 1 h 36 min
Overall bit rate               : 1 077 kb/s
Movie name                     : The.Angry.Birds.Movie.2.2019.HDRip(AVC).745Mb.OlLanDGroup#Skandar#
Encoded date                   : UTC 2019-10-31 08:23:49
Writing application            : mkvmerge v31.0.0 ('Dolores In A Shoestand') 64-bit
Writing library                : libebml v1.3.6 + libmatroska v1.4.9

Video
ID                             : 1
Format                         : AVC
Format/Info                    : Advanced Video Codec
Format profile                 : High@L4.1
Format settings                : CABAC / 10 Ref Frames
Format settings, CABAC         : Yes
Format settings, ReFrames      : 10 frames
Codec ID                       : V_MPEG4/ISO/AVC
Duration                       : 1 h 36 min
Bit rate                       : 1 011 kb/s
Width                          : 720 pixels
Height                         : 392 pixels
Display aspect ratio           : 1.85:1
Frame rate mode                : Constant
Frame rate                     : 23.976 (24000/1001) FPS
Color space                    : YUV
Chroma subsampling             : 4:2:0
Bit depth                      : 8 bits
Scan type                      : Progressive
Bits/(Pixel*Frame)             : 0.149
Stream size                    : 700 MiB (94%)
Title                          : The.Angry.Birds.Movie.2.2019.HDRip(AVC).745Mb.OlLanDGroup#Skandar#
Writing library                : x264 core 146 r2538 121396c
Encoding settings              : cabac=1 / ref=10 / deblock=1:-3:-3 / analyse=0x3:0x133 / me=umh / subme=11 / psy=1 / psy_rd=0.97:0.05 / mixed_ref=1 / me_range=48 / chroma_me=1 / trellis=2 / 8x8dct=1 / cqm=0 / deadzone=21,11 / fast_pskip=0 / chroma_qp_offset=-3 / threads=6 / lookahead_threads=1 / sliced_threads=0 / nr=0 / decimate=0 / interlaced=0 / bluray_compat=0 / constrained_intra=0 / bframes=11 / b_pyramid=2 / b_adapt=2 / b_bias=0 / direct=3 / weightb=1 / open_gop=0 / weightp=2 / keyint=240 / keyint_min=23 / scenecut=40 / intra_refresh=0 / rc_lookahead=40 / rc=2pass / mbtree=0 / bitrate=1011 / ratetol=1.0 / qcomp=0.60 / qpmin=0 / qpmax=69 / qpstep=4 / cplxblur=20.0 / qblur=0.5 / vbv_maxrate=50000 / vbv_bufsize=62500 / nal_hrd=none / filler=0 / ip_ratio=1.40 / pb_ratio=1.30 / aq=1:1.00
Language                       : Russian
Default                        : Yes
Forced                         : No

Audio
ID                             : 2
Format                         : AAC LC SBR
Format/Info                    : Advanced Audio Codec Low Complexity with Spectral Band Replication
Commercial name                : HE-AAC
Format settings                : Explicit
Codec ID                       : A_AAC-2
Duration                       : 1 h 36 min
Bit rate                       : 64.0 kb/s
Channel(s)                     : 2 channels
Channel layout                 : L R
Sampling rate                  : 48.0 kHz
Frame rate                     : 23.438 FPS (2048 SPF)
Compression mode               : Lossy
Delay relative to video        : 31 ms
Stream size                    : 44.3 MiB (6%)
Title                          : DUB (iTunes)
Language                       : Russian
Default                        : Yes
Forced                         : No

Text #1
ID                             : 3
Format                         : UTF-8
Codec ID                       : S_TEXT/UTF8
Codec ID/Info                  : UTF-8 Plain Text
Duration                       : 1 h 36 min
Bit rate                       : 0 b/s
Count of elements              : 16
Stream size                    : 561 Bytes (0%)
Title                          : Forced
Language                       : Russian
Default                        : Yes
Forced                         : Yes

Text #2
ID                             : 4
Format                         : UTF-8
Codec ID                       : S_TEXT/UTF8
Codec ID/Info                  : UTF-8 Plain Text
Duration                       : 1 h 36 min
Bit rate                       : 88 b/s
Count of elements              : 1374
Stream size                    : 62.4 KiB (0%)
Title                          : Full
Language                       : Russian
Default                        : No
Forced                         : No

Text #3
ID                             : 5
Format                         : UTF-8
Codec ID                       : S_TEXT/UTF8
Codec ID/Info                  : UTF-8 Plain Text
Duration                       : 1 h 36 min
Bit rate                       : 86 b/s
Count of elements              : 1373
Stream size                    : 61.1 KiB (0%)
Title                          : Full
Language                       : Ukrainian
Default                        : No
Forced                         : No

Text #4
ID                             : 6
Format                         : UTF-8
Codec ID                       : S_TEXT/UTF8
Codec ID/Info                  : UTF-8 Plain Text
Duration                       : 1 h 27 min
Bit rate                       : 67 b/s
Count of elements              : 1322
Stream size                    : 43.4 KiB (0%)
Title                          : Full
Language                       : English
Default                        : No
Forced                         : No

Text #5
ID                             : 7
Format                         : UTF-8
Codec ID                       : S_TEXT/UTF8
Codec ID/Info                  : UTF-8 Plain Text
Duration                       : 1 h 34 min
Bit rate                       : 80 b/s
Count of elements              : 1759
Stream size                    : 56.0 KiB (0%)
Title                          : SDH
Language                       : English
Default                        : No
Forced                         : No

Menu
00:00:00.000                   : en:Chapter 01
00:05:19.486                   : en:Chapter 02
00:12:05.892                   : en:Chapter 03
00:18:52.673                   : en:Chapter 04
00:24:11.867                   : en:Chapter 05
00:28:46.683                   : en:Chapter 06
00:34:48.461                   : en:Chapter 07
00:40:10.158                   : en:Chapter 08
00:47:10.828                   : en:Chapter 09
00:52:56.382                   : en:Chapter 10
00:58:04.690                   : en:Chapter 11
01:04:36.122                   : en:Chapter 12
01:09:55.650                   : en:Chapter 13
01:15:40.286                   : en:Chapter 14
01:21:11.116                   : en:Chapter 15
01:26:26.848                   : en:Chapter 16



Скриншоты:
[+] Всего файлов в раздаче - 1:
The.Angry.Birds.Movie.2.2019.HDRip(AVC).745Mb.OlLanDGroup.mkv745.99 MB

Показать еще раздачи по запросу angry:
2019-11-11 U Грозная красная планета / The Angry Red Planet (1959) BDRip-AVC | L1 1.45 GB ↑ 32 ↓ 4
2019-11-09 U Angry Birds 2 в кино / The Angry Birds Movie 2 (2019) BDRip-HEVC 1080p | iTunes 4.64 GB ↑ 63 ↓ 36
2019-11-05 U Angry Birds 2 в кино / The Angry Birds Movie 2 (2019) BDRip-HEVC 1080p от xdemon | iTunes 3.28 GB ↑ 76 ↓ 12
2019-11-04 U Angry Birds 2 в кино / The Angry Birds Movie 2 (2019) BDRip от Twister & ExKinoRay | iTunes 1.42 GB ↑ 136 ↓ 24
2019-11-02 U Angry Birds 2 в кино / The Angry Birds Movie 2 (2019) BDRip-AVC от ExKinoRay | iTunes 1К1.99 GB ↑ 372 ↓ 122
2019-11-01 U Angry Birds 2 в кино / The Angry Birds Movie 2 (2019) BDRemux 1080p от селезень | iTunes 17.27 GB ↑ 66 ↓ 48
2019-10-31 U Angry Birds 2 в кино / The Angry Birds Movie 2 (2019) BDRip 720p от селезень | iTunes 5.15 GB ↑ 217 ↓ 137

Отзывы
Зарегистрируйтесь чтобы добавить комментарий.
Обратная связь
Copyleft ©