↑↓Torrent.by
Поиск
Логин: Регистрация
Пароль: Восстановить пароль

Дылды [01-21 из 21] (2019) WEB-DL 720p от ExKinoRay

Скачать dyldy-01-21-iz-2019-web-dl-720p-ot-exkinoray.torrent
U Магнитная ссылка Размер: 12.42 GB Раздают: 117 Качают: 259 Добавлен: 2019-11-01 06:31:38
Дылды [01-21 из 21] (2019) WEB-DL 720p от ExKinoRay

Оригинальное название: Дылды
Год выхода: 2019
Жанр: Комедия, спорт
Режиссер: Сергей Сенцов
В ролях: Павел Деревянко, Анна Невская, Дарья Урсуляк, Татьяна Орлова, Павел Майков, Анна Антонова, Сергей Рубеко, Ангелина Поплавская, Изабель Эйдлен, Евгения Тремасова, Юлия Макарова (II), Дмитрий Караневский, Степан Девонин, Анатолий Горячев, Марина Коваленко, Александр Андриенко, Николай Лунин (II), Дарья Пицик, Надежда Карпова, Маша Тухарь

О фильме:
Успешный тренер, сексист и бабник Михаил Ковалёв теряет работу из-за скандального характера и неуважительного отношения к женщинам. Чтобы вернуться в Суперлигу, ему предстоит выиграть чемпионат с провинциальной студенческой женской командой. Помешать ему в этом постараются проректор-перфекционист Ирина и затаившая обиду экс-девушка Наталья.

Страна: Россия
Студия: Art Pictures Vision по заказу телеканала СТС
Продолжительность: 21 х ~ 00:25:00
Перевод: Не требуется

Файл
Кодек: MPEG-4 AVC
Качество: WEB-DL 720p
Видео: 1280х720 (16:9), 25 fps, AVC MPEG-4 (x264), High@L4.1 ~ 3000 kbps avg, 0.127 bit/pixel
Звук: 48 kHz, AC3, 2 ch, 192 kbps avg

Релиз:


[+] MediaInfo

Общее
Уникальный идентификатор                 : 188671673394886058619339203615862834829 (0x8DF0D7B1058A9FDE9F1ABB0EEB14468D)
Полное имя                               : G:Dyldy.2019.WEB-DL.(720p).ExKinoRayDyldy.s01.(01.seriya).2019.WEB-DL.(720p).ExKinoRay.mkv
Формат                                   : Matroska
Версия формата                           : Version 4 / Version 2
Размер файла                             : 592 Мбайт
Продолжительность                        : 26 м. 3 с.
Общий поток                              : 3179 Кбит/сек
Дата кодирования                         : UTC 2019-09-26 22:21:53
Программа кодирования                    : mkvmerge v6.9.1 ('Blue Panther') 64bit built on Apr 18 2014 18:23:38
Библиотека кодирования                   : libebml v1.3.0 + libmatroska v1.4.1

Видео
Идентификатор                            : 1
Формат                                   : AVC
Формат/Информация                        : Advanced Video Codec
Профиль формата                          : High@L4.1
Настройки формата                        : CABAC / 5 Ref Frames
Параметр CABAC формата                   : Да
Параметр RefFrames формата               : 5 кадров
Параметр GOP формата                     : M=4, N=50
Идентификатор кодека                     : V_MPEG4/ISO/AVC
Продолжительность                        : 26 м. 3 с.
Битрейт                                  : 2923 Кбит/сек
Ширина                                   : 1280 пикселей
Высота                                   : 720 пикселей
Соотношение сторон                       : 16:9
Режим частоты кадров                     : Постоянный
Частота кадров                           : 25,000 кадров/сек
Цветовое пространство                    : YUV
Субдискретизация насыщенности            : 4:2:0
Битовая глубина                          : 8 бит
Тип развёртки                            : Прогрессивная
Бит/(Пиксели*Кадры)                      : 0.127
Размер потока                            : 545 Мбайт (92%)
Default                                  : Да
Forced                                   : Нет
Цветовой диапазон                        : Limited
Основные цвета                           : BT.709
Характеристики трансфера                 : BT.709
Коэффициенты матрицы                     : BT.709

Аудио
Идентификатор                            : 2
Формат                                   : AC-3
Формат/Информация                        : Audio Coding 3
Идентификатор кодека                     : A_AC3
Продолжительность                        : 26 м. 3 с.
Вид битрейта                             : Постоянный
Битрейт                                  : 192 Кбит/сек
Каналы                                   : 2 канала
Расположение каналов                     : Front: L R
Частота                                  : 48,0 КГц
Частота кадров                           : 31,250 кадров/сек (1536 SPF)
Битовая глубина                          : 16 бит
Метод сжатия                             : С потерями
Размер потока                            : 35,8 Мбайт (6%)
Язык                                     : Russian
Default                                  : Да
Forced                                   : Нет



Скриншоты:
[+] Всего файлов в раздаче - 21:
Dyldy.s01.(01.seriya).2019.WEB-DL.(720p).ExKinoRay.mkv592.37 MB
Dyldy.s01.(02.seriya).2019.WEB-DL.(720p).ExKinoRay.mkv550.01 MB
Dyldy.s01.(03.seriya).2019.WEB-DL.(720p).ExKinoRay.mkv535.53 MB
Dyldy.s01.(04.seriya).2019.WEB-DL.(720p).ExKinoRay.mkv623.89 MB
Dyldy.s01.(05.seriya).2019.WEB-DL.(720p).ExKinoRay.mkv543.34 MB
Dyldy.s01.(06.seriya).2019.WEB-DL.(720p).ExKinoRay.mkv538.85 MB
Dyldy.s01.(07.seriya).2019.WEB-DL.(720p).ExKinoRay.mkv536.32 MB
Dyldy.s01.(08.seriya).2019.WEB-DL.(720p).ExKinoRay.mkv637.84 MB
Dyldy.s01.(09.seriya).2019.WEB-DL.(720p).ExKinoRay.mkv648.92 MB
Dyldy.s01.(10.seriya).2019.WEB-DL.(720p).ExKinoRay.mkv636.72 MB
Dyldy.s01.(11.seriya).2019.WEB-DL.(720p).ExKinoRay.mkv641.28 MB
Dyldy.s01.(12.seriya).2019.WEB-DL.(720p).ExKinoRay.mkv534.50 MB
Dyldy.s01.(13.seriya).2019.WEB-DL.(720p).ExKinoRay.mkv644.17 MB
Dyldy.s01.(14.seriya).2019.WEB-DL.(720p).ExKinoRay.mkv636.74 MB
Dyldy.s01.(15.seriya).2019.WEB-DL.(720p).ExKinoRay.mkv639.53 MB
Dyldy.s01.(16.seriya).2019.WEB-DL.(720p).ExKinoRay.mkv616.77 MB
Dyldy.s01.(17.seriya).2019.WEB-DL.(720p).ExKinoRay.mkv635.35 MB
Dyldy.s01.(18.seriya).2019.WEB-DL.(720p).ExKinoRay.mkv639.02 MB
Dyldy.s01.(19.seriya).2019.WEB-DL.(720p).ExKinoRay.mkv621.38 MB
Dyldy.s01.(20.seriya).2019.WEB-DL.(720p).ExKinoRay.mkv614.58 MB
Dyldy.s01.(21.seriya).2019.WEB-DL.(720p).ExKinoRay.mkv652.41 MB

Показать еще раздачи по запросу дылды:
2019-11-01 U Дылды [01-21 из 21] (2019) WEB-DLRip от Files-x 6.35 GB ↑ 67 ↓ 208
2019-11-01 U Дылды [01-21 из 21] (2019) WEB-DLRip от GeneralFilm 6.02 GB ↑ 78 ↓ 285
2019-11-01 U Дылды [S01] (2019) WEB-DLRip-AVC от Files-x 6.32 GB ↑ 52 ↓ 77
2019-11-01 U Дылды [01-21 из 21] (2019) WEB-DLRip 7.18 GB ↑ 207 ↓ 929
2019-10-31 U Дылды [01-21 из 21] (2019) WEB-DL 1080p 18.39 GB ↑ 85 ↓ 588
2019-10-31 U Дылды [01-20 из 21] (2019) WEB-DLRip от GeneralFilm 5.73 GB ↑ 58 ↓ 304
2019-10-31 U Дылды [01-20 из 21] (2019) WEB-DL 720p от ExKinoRay 11.78 GB ↑ 30 ↓ 136

Отзывы
Зарегистрируйтесь чтобы добавить комментарий.
Обратная связь
Copyleft ©