↑↓Torrent.by
Поиск
Логин: Регистрация
Пароль: Восстановить пароль

Дылды [01-21 из 21] (2019) WEB-DLRip от GeneralFilm

Скачать dyldy-01-21-iz-2019-web-dlrip-ot-generalfilm.torrent
U Магнитная ссылка Размер: 6.02 GB Раздают: 78 Качают: 285 Добавлен: 2019-11-01 12:59:19
Дылды [01-21 из 21] (2019) WEB-DLRip от GeneralFilm

Оригинальное название: Дылды
Год выпуска: 2019
Жанр:  Комедия, спорт
Выпущено: Россия, «Art Pictures Vision»
Режиссер: Сергей Сенцов
В ролях: Павел Деревянко, Анна Невская, Дарья Урсуляк, Татьяна Орлова, Павел Майков, Анна Антонова, Сергей Рубеко, Ангелина Поплавская, Изабель Эйдлен, Евгения Тремасова, Юлия Макарова (II), Дмитрий Караневский, Степан Девонин, Анатолий Горячев, Марина Коваленко, Александр Андриенко, Николай Лунин (II), Дарья Пицик, Надежда Карпова, Маша Тухарь

О фильме: Успешный тренер, сексист и бабник Михаил Ковалёв теряет работу из-за скандального характера и неуважительного отношения к женщинам. Чтобы вернуться в Суперлигу, ему предстоит выиграть чемпионат с провинциальной студенческой женской командой. Помешать ему в этом постараются проректор-перфекционист Ирина и затаившая обиду экс-девушка Наталья.

Качество: WEB-DLRip
Видео: XviD build 73, 720x400 (16:9), 25.000 fps, 1550 Kbps (0.215 bit/pixel)
Аудио: 48.0 kHz, AC3, 2/0 ch, 192 kbps
Продолжительность: 21 х ~ 00:25:00
Перевод: Не требуется [Русский]
Cубтитры: нет

Релиз:
[+] MediaInfo
General
Complete name               : D:RazdachiDyldy.2019.WEB-DLRip.GeneralFilmDyldy.e03.avi
Format                      : AVI
Format/Info                 : Audio Video Interleave
File size                   : 290 MiB
Duration                    : 23 min 7 s
Overall bit rate            : 1 753 kb/s
Writing application         : VirtualDubMod 1.5.10.3 | www.virtualdub-fr.org || (build 2550/release)
Writing library             : VirtualDubMod build 2550/release

Video
ID                          : 0
Format                      : MPEG-4 Visual
Format profile              : Advanced Simple@L5
Format settings             : BVOP1 / Custom Matrix
Format settings, BVOP       : 1
Format settings, QPel       : No
Format settings, GMC        : No warppoints
Format settings, Matrix     : Custom
Codec ID                    : XVID
Codec ID/Hint               : XviD
Duration                    : 23 min 7 s
Bit rate                    : 1 551 kb/s
Width                       : 720 pixels
Height                      : 400 pixels
Display aspect ratio        : 16:9
Frame rate                  : 25.000 FPS
Color space                 : YUV
Chroma subsampling          : 4:2:0
Bit depth                   : 8 bits
Scan type                   : Progressive
Compression mode            : Lossy
Bits/(Pixel*Frame)          : 0.215
Stream size                 : 257 MiB (88%)
Writing library             : XviD 73

Audio
ID                          : 1
Format                      : AC-3
Format/Info                 : Audio Coding 3
Commercial name             : Dolby Digital
Codec ID                    : 2000
Duration                    : 23 min 7 s
Bit rate mode               : Constant
Bit rate                    : 192 kb/s
Channel(s)                  : 2 channels
Channel layout              : L R
Sampling rate               : 48.0 kHz
Frame rate                  : 31.250 FPS (1536 SPF)
Bit depth                   : 16 bits
Compression mode            : Lossy
Stream size                 : 31.8 MiB (11%)
Alignment                   : Split accross interleaves
Interleave, duration        : 40  ms (1.00 video frame)
Interleave, preload duratio : 500  ms
Service kind                : Complete Main



Скриншоты:
[+] Всего файлов в раздаче - 21:
Dyldy.e01.avi325.88 MB
Dyldy.e02.avi293.76 MB
Dyldy.e03.avi289.94 MB
Dyldy.e04.avi288.57 MB
Dyldy.e05.avi288.51 MB
Dyldy.e06.avi288.93 MB
Dyldy.e07.avi284.41 MB
Dyldy.e08.avi292.06 MB
Dyldy.e09.avi295.87 MB
Dyldy.e10.avi293.02 MB
Dyldy.e11.avi298.41 MB
Dyldy.e12.avi285.36 MB
Dyldy.e13.avi295.04 MB
Dyldy.e14.avi293.85 MB
Dyldy.e15.avi297.11 MB
Dyldy.e16.avi284.45 MB
Dyldy.e17.avi294.05 MB
Dyldy.e18.avi297.27 MB
Dyldy.e19.avi289.69 MB
Dyldy.e20.avi286.85 MB
Dyldy.e21.avi303.43 MB

Показать еще раздачи по запросу дылды:
2019-11-01 U Дылды [01-21 из 21] (2019) WEB-DLRip от Files-x 6.35 GB ↑ 67 ↓ 208
2019-11-01 U Дылды [S01] (2019) WEB-DLRip-AVC от Files-x 6.32 GB ↑ 52 ↓ 77
2019-11-01 U Дылды [01-21 из 21] (2019) WEB-DL 720p от ExKinoRay 12.42 GB ↑ 117 ↓ 259
2019-11-01 U Дылды [01-21 из 21] (2019) WEB-DLRip 7.18 GB ↑ 207 ↓ 929
2019-10-31 U Дылды [01-21 из 21] (2019) WEB-DL 1080p 18.39 GB ↑ 85 ↓ 588
2019-10-31 U Дылды [01-20 из 21] (2019) WEB-DLRip от GeneralFilm 5.73 GB ↑ 58 ↓ 304
2019-10-31 U Дылды [01-20 из 21] (2019) WEB-DL 720p от ExKinoRay 11.78 GB ↑ 30 ↓ 136

Отзывы
Зарегистрируйтесь чтобы добавить комментарий.
Обратная связь
Copyleft ©