↑↓Torrent.by
Поиск
Логин: Регистрация
Пароль: Восстановить пароль

Angry Birds 2 в кино / The Angry Birds Movie 2 (2019) BDRemux 1080p от селезень | iTunes

Скачать angry-birds-2-v-kino-the-movie-2019-bdremux-1080p-ot-selezen-itunes.torrent
U Магнитная ссылка Размер: 17.27 GB Раздают: 65 Качают: 48 Добавлен: 2019-11-01 13:00:05
Angry Birds 2 в кино / The Angry Birds Movie 2 (2019) BDRemux 1080p от селезень | iTunes

Название: Angry Birds 2 в кино
Оригинальное название: The Angry Birds Movie 2
Год выхода: 2019
Жанр: Мультфильм, комедия, приключения, семейный, полнометражный
Режиссер: Туроп Ван Орман, Джон Райс
В ролях: Аквафина, Дав Кэмерон, Билл Хэйдер, Дэнни Макбрайд, Питер Динклэйдж, Тиффани Хэддиш, Майя Рудольф, Джейсон Судейкис, Стерлинг К. Браун, Эухенио Дербес, Джош Гэд, Лесли Джонс, Рэйчел Блум

О фильме: Птицы узнали о существовании голодных зелёных свиней, после чего началась священная война, которая длилась многие годы. Однако теперь на горизонте появился новый враг - Зета, обитательница третьего, замёрзшего острова. Она считает, что все должны почувствовать на себе силу холода, и начинает атаку на дальних родственников, обитающих в тёплых краях. Теперь птицы и свиньи должны объединиться, чтобы остановить заморозки.

Страна: США, Финляндия
Студия: Rovio Animation, Sony Pictures Animation
Продолжительность: 01:36:47
Перевод: Дублированный | iTunes

Качество: BDRemux 1080p
Видео: MPEG-4 AVC, 1920x1080, 22.7 Mbit/s, 23.976 fps
Аудио #01: 48 kHz, AC3, 5.1, 384 Kbps | iTunes | RUS |
Аудио #02: 48 kHz, AC3, 2.0, 160 Kbps | iTunes | UKR |
Аудио #03: 48 kHz, DTS-HD MA, 5.1, 2296 Kbps | Оригинал |  ENG |
Субтитры: Русские (Forced, full), украинские (Full), английские

Релиз:


[+] MI
General
Unique ID                   : 65163694009916163215006850333251432355 (0x3106122A4EAC831BAFD2841590E76FA3)
Complete name               : D:Video111The.Angry.Birds.Movie.2.2019.BDREMUX.1080p.seleZen.mkv
Format                      : Matroska
Format version              : Version 4
File size                   : 17.3 GiB
Duration                    : 1 h 36 min
Overall bit rate mode       : Variable
Overall bit rate            : 25.5 Mb/s
Movie name                  : The Angry Birds Movie 2 2019 from селезень
Encoded date                : UTC 2019-10-31 21:34:14
Writing application         : mkvmerge v22.0.0 ('At The End Of The World') 64-bit
Writing library             : libebml v1.3.5 + libmatroska v1.4.8

Video
ID                          : 1
Format                      : AVC
Format/Info                 : Advanced Video Codec
Format profile              : High@L4.1
Format settings             : CABAC / 2 Ref Frames
Format settings, CABAC      : Yes
Format settings, Reference  : 2 frames
Format settings, GOP        : M=1, N=10
Codec ID                    : V_MPEG4/ISO/AVC
Duration                    : 1 h 36 min
Bit rate mode               : Variable
Bit rate                    : 22.7 Mb/s
Width                       : 1 920 pixels
Height                      : 1 080 pixels
Display aspect ratio        : 16:9
Frame rate mode             : Constant
Frame rate                  : 23.976 (24000/1001) FPS
Color space                 : YUV
Chroma subsampling          : 4:2:0
Bit depth                   : 8 bits
Scan type                   : Progressive
Bits/(Pixel*Frame)          : 0.456
Stream size                 : 15.3 GiB (89%)
Language                    : English
Default                     : Yes
Forced                      : No

Audio #1
ID                          : 2
Format                      : AC-3
Format/Info                 : Audio Coding 3
Commercial name             : Dolby Digital
Codec ID                    : A_AC3
Duration                    : 1 h 36 min
Bit rate mode               : Constant
Bit rate                    : 384 kb/s
Channel(s)                  : 6 channels
Channel layout              : L R C LFE Ls Rs
Sampling rate               : 48.0 kHz
Frame rate                  : 31.250 FPS (1536 SPF)
Bit depth                   : 16 bits
Compression mode            : Lossy
Stream size                 : 266 MiB (2%)
Title                       : iTunes
Language                    : Russian
Service kind                : Complete Main
Default                     : Yes
Forced                      : Yes

Audio #2
ID                          : 3
Format                      : AC-3
Format/Info                 : Audio Coding 3
Commercial name             : Dolby Digital
Codec ID                    : A_AC3
Duration                    : 1 h 36 min
Bit rate mode               : Constant
Bit rate                    : 160 kb/s
Channel(s)                  : 2 channels
Channel layout              : L R
Sampling rate               : 48.0 kHz
Frame rate                  : 31.250 FPS (1536 SPF)
Bit depth                   : 16 bits
Compression mode            : Lossy
Stream size                 : 111 MiB (1%)
Title                       : iTunes
Language                    : Ukrainian
Service kind                : Complete Main
Default                     : No
Forced                      : No

Audio #3
ID                          : 4
Format                      : DTS XLL
Format/Info                 : Digital Theater Systems
Commercial name             : DTS-HD Master Audio
Codec ID                    : A_DTS
Duration                    : 1 h 36 min
Bit rate mode               : Variable
Bit rate                    : 2 296 kb/s
Channel(s)                  : 6 channels
Channel layout              : C L R Ls Rs LFE
Sampling rate               : 48.0 kHz
Frame rate                  : 93.750 FPS (512 SPF)
Bit depth                   : 16 bits
Compression mode            : Lossless
Stream size                 : 1.55 GiB (9%)
Title                       : Original
Language                    : English
Default                     : No
Forced                      : No

Text #1
ID                          : 5
Format                      : UTF-8
Codec ID                    : S_TEXT/UTF8
Codec ID/Info               : UTF-8 Plain Text
Duration                    : 1 h 36 min
Bit rate                    : 0 b/s
Count of elements           : 16
Stream size                 : 561 Bytes (0%)
Title                       : Forced
Language                    : Russian
Default                     : Yes
Forced                      : Yes

Text #2
ID                          : 6
Format                      : UTF-8
Codec ID                    : S_TEXT/UTF8
Codec ID/Info               : UTF-8 Plain Text
Duration                    : 1 h 36 min
Bit rate                    : 88 b/s
Count of elements           : 1374
Stream size                 : 62.4 KiB (0%)
Title                       : Full
Language                    : Russian
Default                     : No
Forced                      : No

Text #3
ID                          : 7
Format                      : UTF-8
Codec ID                    : S_TEXT/UTF8
Codec ID/Info               : UTF-8 Plain Text
Duration                    : 1 h 36 min
Bit rate                    : 86 b/s
Count of elements           : 1373
Stream size                 : 61.1 KiB (0%)
Title                       : Full
Language                    : Ukrainian
Default                     : No
Forced                      : No

Text #4
ID                          : 8
Format                      : UTF-8
Codec ID                    : S_TEXT/UTF8
Codec ID/Info               : UTF-8 Plain Text
Duration                    : 1 h 27 min
Bit rate                    : 67 b/s
Count of elements           : 1322
Stream size                 : 43.4 KiB (0%)
Title                       : Full
Language                    : English
Default                     : No
Forced                      : No

Text #5
ID                          : 9
Format                      : UTF-8
Codec ID                    : S_TEXT/UTF8
Codec ID/Info               : UTF-8 Plain Text
Duration                    : 1 h 34 min
Bit rate                    : 80 b/s
Count of elements           : 1759
Stream size                 : 56.0 KiB (0%)
Title                       : SDH
Language                    : English
Default                     : No
Forced                      : No

Menu
00:00:00.000                : en:Chapter 01
00:05:19.486                : en:Chapter 02
00:12:05.892                : en:Chapter 03
00:18:52.673                : en:Chapter 04
00:24:11.867                : en:Chapter 05
00:28:46.683                : en:Chapter 06
00:34:48.461                : en:Chapter 07
00:40:10.158                : en:Chapter 08
00:47:10.828                : en:Chapter 09
00:52:56.382                : en:Chapter 10
00:58:04.690                : en:Chapter 11
01:04:36.122                : en:Chapter 12
01:09:55.650                : en:Chapter 13
01:15:40.286                : en:Chapter 14
01:21:11.116                : en:Chapter 15
01:26:26.848                : en:Chapter 16



Скриншоты:
[+] Всего файлов в раздаче - 1:
The.Angry.Birds.Movie.2.2019.BDREMUX.1080p.seleZen.mkv17.27 GB

Показать еще раздачи по запросу angry:
Сегодня U Грозная красная планета / The Angry Red Planet (1959) BDRip-AVC | L1 1.45 GB ↑ 32 ↓ 4
2019-11-09 U Angry Birds 2 в кино / The Angry Birds Movie 2 (2019) BDRip-HEVC 1080p | iTunes 4.64 GB ↑ 63 ↓ 36
2019-11-05 U Angry Birds 2 в кино / The Angry Birds Movie 2 (2019) BDRip-HEVC 1080p от xdemon | iTunes 3.28 GB ↑ 74 ↓ 11
2019-11-04 U Angry Birds 2 в кино / The Angry Birds Movie 2 (2019) BDRip от Twister & ExKinoRay | iTunes 1.42 GB ↑ 131 ↓ 23
2019-11-02 U Angry Birds 2 в кино / The Angry Birds Movie 2 (2019) BDRip-AVC от ExKinoRay | iTunes 1К1.99 GB ↑ 367 ↓ 122
2019-10-31 U Angry Birds 2 в кино / The Angry Birds Movie 2 (2019) HDRip-AVC от OlLanDGroup | iTunes 745.99 MB ↑ 81 ↓ 34
2019-10-31 U Angry Birds 2 в кино / The Angry Birds Movie 2 (2019) BDRip 720p от селезень | iTunes 5.15 GB ↑ 215 ↓ 137

Отзывы
Зарегистрируйтесь чтобы добавить комментарий.
Обратная связь
Copyleft ©