↑↓Torrent.by
Поиск
Логин: Регистрация
Пароль: Восстановить пароль

Голос [08х01-04] (2019) HDTVRip от GeneralFilm

Скачать golos-08h01-04-2019-hdtvrip-ot-generalfilm.torrent
U Магнитная ссылка Размер: 5.23 GB Раздают: 52 Качают: 181 Добавлен: 2019-11-02 14:13:40
Голос [08х01-04] (2019) HDTVRip от GeneralFilm

Оригинальное название: Голос
Год выпуска: 2019
Жанр:  Музыка, концерт
Выпущено: Россия, Первый канал, Красный квадрат, Talpa Productions
Ведущий: Дмитрий Нагиев

О фильме: Один из самых ярких шоу-проектов в очередной раз продемонстрирует невероятные результаты от альянса обладателей незаурядных голосов и опытных наставников, позволяющих талантам раскрыться и расцвести. Великолепные голоса, уникальные музыкальные постановки, молодые и не очень участники, которым придется испытать радость творчества, счастье триумфа и слезы поражения – все это в полной мере представлено в новом сезоне «Голоса» - проекта, дающего каждому желающему уникальный шанс проявить себя в вокальном творчестве.

Качество: HDTVRip
Видео: XviD, ~ 1800 Кбит/с, 720х400, 25 кадр/с
Аудио: Русский (AC3, 2 ch, 192 Кбит/с)
Продолжительность: 4 х ~ 01:40:00
Перевод: Не требуется
Субтитры: нет

Большое  спасибо ValkiriaGF за  постер

Релиз:
[+] MediaInfo

Общее
Полное имя                               : D:Golos-8.HDTVRip.GeneralFilm1.Golos-8.HDTVRip.GeneralFilm.avi
Формат                                   : AVI
Формат/Информация                        : Audio Video Interleave
Размер файла                             : 1,45 Гбайт
Продолжительность                        : 1 ч. 44 м.
Общий поток                              : 1999 Кбит/сек
Программа кодирования                    : VirtualDubMod 1.5.10.3 | www.virtualdub-fr.org || (build 2550/release)
Библиотека кодирования                   : VirtualDubMod build 2550/release

Видео
Идентификатор                            : 0
Формат                                   : MPEG-4 Visual
Профиль формата                          : Advanced Simple@L5
Параметр BVOP формата                    : 1
Параметр QPel формата                    : Нет
Параметр GMC формата                     : Без точки перехода
Параметр матрицы формата                 : Выборочная
Идентификатор кодека                     : XVID
Идентификатор кодека/Подсказка           : XviD
Продолжительность                        : 1 ч. 44 м.
Битрейт                                  : 1797 Кбит/сек
Ширина                                   : 720 пикселей
Высота                                   : 400 пикселей
Соотношение сторон                       : 16:9
Частота кадров                           : 25,000 кадров/сек
Цветовое пространство                    : YUV
Субдискретизация насыщенности            : 4:2:0
Битовая глубина                          : 8 бит
Тип развёртки                            : Прогрессивная
Метод сжатия                             : С потерями
Бит/(Пиксели*Кадры)                      : 0.250
Размер потока                            : 1,31 Гбайт (90%)
Библиотека кодирования                   : XviD 1.2.1 (UTC 2008-12-04)

Аудио
Идентификатор                            : 1
Формат                                   : AC-3
Формат/Информация                        : Audio Coding 3
Расширение режима                        : CM (complete main)
Параметр Endianness формата              : Big
Идентификатор кодека                     : 2000
Продолжительность                        : 1 ч. 44 м.
Вид битрейта                             : Постоянный
Битрейт                                  : 192 Кбит/сек
Каналы                                   : 2 канала
Расположение каналов                     : Front: L R
Частота                                  : 48,0 КГц
Частота кадров                           : 31,250 кадров/сек (1536 spf)
Битовая глубина                          : 16 бит
Метод сжатия                             : С потерями
Размер потока                            : 143 Мбайт (10%)
Выравнивание                             : Разделение по промежуткам
Продолжительность промежутка             : 40  мс. (1,00 видеокадр)
Время предзагрузки промежутка            : 500  мс.




[+] Наставники

Константин Меладзе, Полина Гагарина, Сергей Шнуров и Валерий Сюткин.



Скриншоты:
[+] Всего файлов в раздаче - 4:
01.Golos-8.HDTVRip.GeneralFilm.avi1.45 GB
02.Golos-8.HDTVRip.GeneralFilm.avi1.34 GB
03.Golos-8.HDTVRip.GeneralFilm.avi1.13 GB
04.Golos-8.HDTVRip.GeneralFilm.avi1.30 GB

Показать еще раздачи по запросу голос:
2019-11-16 U Голос [08х01-06] (2019) HDTVRip от GeneralFilm 7.80 GB ↑ 57 ↓ 262
2019-11-10 U Голос [08х01-05] (2019) HDTV 1080i от GeneralFilm 30.44 GB ↑ 28 ↓ 52
2019-11-09 U Голос [08х01-05] (2019) HDTVRip от GeneralFilm 6.50 GB ↑ 51 ↓ 241
2019-10-26 U Голос [08х01-03] (2019) HDTVRip от GeneralFilm 3.93 GB ↑ 81 ↓ 170
2019-10-19 U Голос [08х01-02] (2019) HDTV 1080i от GeneralFilm 12.56 GB ↑ 42 ↓ 29
2019-10-19 U Голос [S08х01-02] (2019) HDTVRip от GeneralFilm 2.80 GB ↑ 64 ↓ 52
2018-10-13 U Голос. Перезагрузка [07х01] (2018) HDTV 1080i от GeneralFilm 5.48 GB ↑ 455 ↓ 64

Отзывы
Зарегистрируйтесь чтобы добавить комментарий.
Обратная связь
Copyleft ©