↑↓torrent.by
Поиск
Логин: Регистрация
Пароль: Восстановить пароль

Интерстеллар / Interstellar (2014) BDRip-HEVC 1080p от HEVC-CLUB | Лицензия | IMAX Edition

Скачать interstellar-2014-bdrip-hevc-1080p-ot-club-licenziya-imax-edition.torrent
U Магнитная ссылка Размер: 13.40 GB Раздают: 350 Качают: 73 Добавлен: 2019-11-04 04:37:23
Интерстеллар / Interstellar (2014)  BDRip-HEVC 1080p от HEVC-CLUB | Лицензия | IMAX Edition

Год выхода:  2014
Страна: США, Великобритания
Жанр:  Фантастика, драма, приключения
Продолжительность: 02:49:03
Перевод: Дублированный (Лицензия)

Режиссер: Кристофер Нолан
В главных ролях: Мэттью МакКонахи, Энн Хэтэуэй, Джессика Честейн, Маккензи Фой, Майкл Кейн, Дэвид Гяси, Уэс Бентли, Кейси Аффлек, Джон Литгоу, Мэтт Дэймон

Описание: Когда засуха приводит человечество к продовольственному кризису, коллектив исследователей и учёных отправляется сквозь червоточину (которая предположительно соединяет области пространства-времени через большое расстояние) в путешествие, чтобы превзойти прежние ограничения для космических путешествий человека и переселить человечество на другую планету.

Качество: BDRip 1080p
Видео: HEVC/H.265, 1920x1080, ~9428 Kbps
Аудио 1: AC3, 6 ch, 640 Kbps - Русский, дублированный
Аудио 2: AC3, 6 ch, 640 Kbps - Украинский, дублированный
Аудио 3: AC3, 6 ch, 640 Kbps - Английский
Субтитры: Русские (форсированные, полные), украинские (форсированные), английские (полные, SDH-COLORED)

Релиз:


[+] Mediainfo
Общее
Уникальный идентификатор                 : 226352464653023745385741383751841516958 (0xAA49E622A49FBA019E21BCC4FEC68D9E)
Полное имя                               : R:Interstellar (2014) BDRip 1080p.mkv
Формат                                   : Matroska
Версия формата                           : Version 4 / Version 2
Размер файла                             : 13,4 Гбайт
Продолжительность                        : 2 ч. 49 м.
Общий поток                              : 11,4 Мбит/сек
Название фильма                          : Interstellar (2014)
Дата кодирования                         : UTC 2019-11-02 17:06:45
Программа кодирования                    : mkvmerge v37.0.0 ('Leave It') 64-bit
Библиотека кодирования                   : libebml v1.3.9 + libmatroska v1.5.2
Обложка                                  : Yes
Attachments                              : cover.jpg

Видео
Идентификатор                            : 1
Формат                                   : HEVC
Формат/Информация                        : High Efficiency Video Coding
Профиль формата                          : Main 10@L4.1@High
Идентификатор кодека                     : V_MPEGH/ISO/HEVC
Продолжительность                        : 2 ч. 49 м.
Битрейт                                  : 9428 Кбит/сек
Ширина                                   : 1920 пикселей
Высота                                   : 1080 пикселей
Соотношение сторон                       : 16:9
Режим частоты кадров                     : Постоянный
Частота кадров                           : 23,976 (23976/1000) кадра/сек
Частота кадров в оригинале               : 23,976 (24000/1001) кадра/сек
Цветовое пространство                    : YUV
Субдискретизация насыщенности            : 4:2:0
Битовая глубина                          : 10 бит
Бит/(Пиксели*Кадры)                      : 0.190
Размер потока                            : 11,1 Гбайт (83%)
Библиотека кодирования                   : x265 3.1.2+1-76650bab70f9:[Windows][MSVC 1922][64 bit] 10bit
Настройки программы                      : cpuid=1111039 / frame-threads=3 / numa-pools=12 / wpp / no-pmode / no-pme / no-psnr / no-ssim / log-level=2 / input-csp=1 / input-res=1920x1080 / interlace=0 / total-frames=235848 / level-idc=41 / high-tier=1 / uhd-bd=0 / ref=5 / no-allow-non-conformance / no-repeat-headers / annexb / no-aud / no-hrd / info / hash=0 / no-temporal-layers / open-gop / min-keyint=23 / keyint=240 / gop-lookahead=0 / bframes=12 / b-adapt=2 / b-pyramid / bframe-bias=0 / rc-lookahead=60 / lookahead-slices=4 / scenecut=40 / radl=0 / no-splice / no-intra-refresh / ctu=32 / min-cu-size=8 / rect / amp / max-tu-size=32 / tu-inter-depth=4 / tu-intra-depth=4 / limit-tu=1 / rdoq-level=2 / dynamic-rd=0.00 / no-ssim-rd / signhide / no-tskip / nr-intra=0 / nr-inter=0 / no-constrained-intra / no-strong-intra-smoothing / max-merge=4 / limit-refs=2 / limit-modes / me=3 / subme=7 / merange=57 / temporal-mvp / weightp / weightb / no-analyze-src-pics / deblock=-3:-3 / no-sao / no-sao-non-deblock / rd=6 / no-early-skip / no-rskip / no-fast-intra / no-tskip-fast / no-cu-lossless / no-b-intra / no-splitrd-skip / rdpenalty=0 / psy-rd=2.00 / psy-rdoq=1.00 / no-rd-refine / no-lossless / cbqpoffs=0 / crqpoffs=0 / rc=crf / crf=20.0 / qcomp=0.60 / qpstep=4 / stats-write=0 / stats-read=0 / vbv-maxrate=50000 / vbv-bufsize=50000 / vbv-init=0.9 / crf-max=0.0 / crf-min=0.0 / ipratio=1.40 / pbratio=1.30 / aq-mode=1 / aq-strength=1.00 / no-cutree / zone-count=0 / no-strict-cbr / qg-size=32 / no-rc-grain / qpmax=69 / qpmin=0 / no-const-vbv / sar=1 / overscan=0 / videoformat=5 / range=0 / colorprim=1 / transfer=1 / colormatrix=1 / chromaloc=0 / display-window=0cll=0,0 / min-luma=0 / max-luma=1023 / log2-max-poc-lsb=8 / vui-timing-info / vui-hrd-info / slices=1 / no-opt-qp-pps / no-opt-ref-list-length-pps / no-multi-pass-opt-rps / scenecut-bias=0.05 / no-opt-cu-delta-qp / no-aq-motion / no-hdr / no-hdr-opt / no-dhdr10-opt / no-idr-recovery-sei / analysis-reuse-level=5 / scale-factor=0 / refine-intra=0 / refine-inter=0 / refine-mv=0 / refine-ctu-distortion=0 / no-limit-sao / ctu-info=0 / no-lowpass-dct / refine-analysis-type=0 / copy-pic=1 / max-ausize-factor=1.0 / no-dynamic-refine / no-single-sei / no-hevc-aq / no-svt / no-field / qp-adaptation-range=1.00
Default                                  : Да
Forced                                   : Нет
Цветовой диапазон                        : Limited
Основные цвета                           : BT.709
Характеристики трансфера                 : BT.709
Коэффициенты матрицы                     : BT.709

Аудио #1
Идентификатор                            : 2
Формат                                   : AC-3
Формат/Информация                        : Audio Coding 3
Идентификатор кодека                     : A_AC3
Продолжительность                        : 2 ч. 49 м.
Вид битрейта                             : Постоянный
Битрейт                                  : 640 Кбит/сек
Каналы                                   : 6 каналов
Расположение каналов                     : Front: L C R, Side: L R, LFE
Частота                                  : 48,0 КГц
Частота кадров                           : 31,250 кадров/сек (1536 SPF)
Битовая глубина                          : 16 бит
Метод сжатия                             : С потерями
Размер потока                            : 774 Мбайт (6%)
Заголовок                                : DUB-Blu-ray CEE
Язык                                     : Russian
ServiceKind/                             : Complete Main
Default                                  : Да
Forced                                   : Нет

Аудио #2
Идентификатор                            : 3
Формат                                   : AC-3
Формат/Информация                        : Audio Coding 3
Идентификатор кодека                     : A_AC3
Продолжительность                        : 2 ч. 49 м.
Вид битрейта                             : Постоянный
Битрейт                                  : 640 Кбит/сек
Каналы                                   : 6 каналов
Расположение каналов                     : Front: L C R, Side: L R, LFE
Частота                                  : 48,0 КГц
Частота кадров                           : 31,250 кадров/сек (1536 SPF)
Битовая глубина                          : 16 бит
Метод сжатия                             : С потерями
Размер потока                            : 774 Мбайт (6%)
Заголовок                                : DUB-Blu-ray CEE
Язык                                     : Ukrainian
ServiceKind/                             : Complete Main
Default                                  : Нет
Forced                                   : Нет

Аудио #3
Идентификатор                            : 4
Формат                                   : AC-3
Формат/Информация                        : Audio Coding 3
Идентификатор кодека                     : A_AC3
Продолжительность                        : 2 ч. 49 м.
Вид битрейта                             : Постоянный
Битрейт                                  : 640 Кбит/сек
Каналы                                   : 6 каналов
Расположение каналов                     : Front: L C R, Side: L R, LFE
Частота                                  : 48,0 КГц
Частота кадров                           : 31,250 кадров/сек (1536 SPF)
Битовая глубина                          : 16 бит
Метод сжатия                             : С потерями
Размер потока                            : 774 Мбайт (6%)
Заголовок                                : Original
Язык                                     : English
ServiceKind/                             : Complete Main
Default                                  : Нет
Forced                                   : Нет

Текст #1
Идентификатор                            : 5
Формат                                   : UTF-8
Идентификатор кодека                     : S_TEXT/UTF8
Идентификатор кодека/Информация          : UTF-8 Plain Text
Продолжительность                        : 2 ч. 17 м.
Битрейт                                  : 0 бит/сек
ElementCount                             : 7
Размер потока                            : 383 байт (0%)
Заголовок                                : Sub-forced
Язык                                     : Russian
Default                                  : Да
Forced                                   : Нет

Текст #2
Идентификатор                            : 6
Формат                                   : UTF-8
Идентификатор кодека                     : S_TEXT/UTF8
Идентификатор кодека/Информация          : UTF-8 Plain Text
Продолжительность                        : 2 ч. 42 м.
Битрейт                                  : 95 бит/сек
ElementCount                             : 2151
Размер потока                            : 114 Кбайт (0%)
Заголовок                                : Sub-full-BD
Язык                                     : Russian
Default                                  : Нет
Forced                                   : Нет

Текст #3
Идентификатор                            : 7
Формат                                   : UTF-8
Идентификатор кодека                     : S_TEXT/UTF8
Идентификатор кодека/Информация          : UTF-8 Plain Text
Продолжительность                        : 2 ч. 17 м.
Битрейт                                  : 0 бит/сек
ElementCount                             : 7
Размер потока                            : 379 байт (0%)
Заголовок                                : Sub-forced
Язык                                     : Ukrainian
Default                                  : Нет
Forced                                   : Нет

Текст #4
Идентификатор                            : 8
Формат                                   : UTF-8
Идентификатор кодека                     : S_TEXT/UTF8
Идентификатор кодека/Информация          : UTF-8 Plain Text
Продолжительность                        : 2 ч. 42 м.
Битрейт                                  : 56 бит/сек
ElementCount                             : 2001
Размер потока                            : 66,9 Кбайт (0%)
Заголовок                                : Sub-full
Язык                                     : English
Default                                  : Нет
Forced                                   : Нет

Текст #5
Идентификатор                            : 9
Формат                                   : UTF-8
Идентификатор кодека                     : S_TEXT/UTF8
Идентификатор кодека/Информация          : UTF-8 Plain Text
Продолжительность                        : 2 ч. 42 м.
Битрейт                                  : 67 бит/сек
ElementCount                             : 2097
Размер потока                            : 80,6 Кбайт (0%)
Заголовок                                : Sub-SDH-COLORED
Язык                                     : English
Default                                  : Нет
Forced                                   : Нет

Меню
00:00:00.000                             : en:00:00:00.000
00:09:35.492                             : en:00:09:35.492
00:17:12.323                             : en:00:17:12.323
00:25:00.749                             : en:00:25:00.749
00:35:45.393                             : en:00:35:45.393
00:42:16.868                             : en:00:42:16.868
00:50:19.892                             : en:00:50:19.892
00:54:48.076                             : en:00:54:48.076
00:58:59.703                             : en:00:58:59.703
01:06:15.013                             : en:01:06:15.013
01:17:28.185                             : en:01:17:28.185
01:25:32.002                             : en:01:25:32.002
01:34:32.000                             : en:01:34:32.000
01:46:14.702                             : en:01:46:14.702
01:55:34.553                             : en:01:55:34.553
02:02:14.369                             : en:02:02:14.369
02:12:56.844                             : en:02:12:56.844
02:20:53.820                             : en:02:20:53.820
02:35:12.094                             : en:02:35:12.094
02:43:59.830                             : en:02:43:59.830



Скриншоты:
[+] Всего файлов в раздаче - 1:
Interstellar (2014) BDRip 1080p.mkv13.40 GB

Похожие раздачи по запросу - интерстеллар:
2017-01-28 U Наука Интерстеллар / The Science of Interstellar (2014) BDRip 720p от NNNB | L1 2.24 GB ↑ 1436 ↓ 40

Отзывы
Зарегистрируйтесь чтобы добавить комментарий.
Загрузите программу
  uTorrent.exe
Обратная связь
Copyleft ©