↑↓torrent.by
Поиск
Логин: Регистрация
Пароль: Восстановить пароль

Форсаж 9 / F9 (2021) BDRip-AVC от OlLanDGroup | Режиссерская версия | iTunes

Скачать forsazh-9-f9-2021-bdrip-avc-ot-ollandgroup-rezhisserskaya-versiya-itunes.torrent
U Магнитная ссылка Размер: 3.90 GB Раздают: 32 Качают: 3 Добавлен: 2021-09-17 08:44:11
Форсаж 9 / F9 (2021) BDRip-AVC от OlLanDGroup | Режиссерская версия | iTunes

Название: Форсаж 9
Оригинальное название: F9
Год выпуска: 2021
Жанр:  Боевик, триллер, криминал, приключения
Выпущено: США, Таиланд, Канада, One Race Films, Roth/Kirschenbaum Films, Perfect Storm Entertainment
Режиссер: Джастин Лин
В ролях: Вин Дизель, Джон Сина, Тайриз Гибсон, Лудакрис, Джордана Брюстер, Натали Эммануэль, Мишель Родригес, Хелен Миррен, Шарлиз Терон, Майкл Рукер

О фильме: Доминик Торетто ведет спокойную жизнь вместе с Летти и своим сыном Брайаном, однако, они знают, что новая опасность всегда где-то рядом. В этот раз Доминику придется встретиться с призраками прошлого, если он хочет спасти самых близких. Команда снова собирается вместе, чтобы предотвратить дерзкий план по захвату мира, который придумал самый опасный преступник и безбашенный водитель из всех, с кем они сталкивались ранее. Ситуация усложняется тем, что этот человек — брат Доминика Джейкоб, которого много лет назад изгнали из семьи

Качество: BDRip (AVC)
Видео: MPEG-4 AVC, 2957 Кбит/с, 1024x428, 23.976 кадр/с
Аудио: Русский, украинский (AC3, 6 ch, 384 Кбит/с)
Размер: 3.90 ГБ
Продолжительность: 02:29:55
Перевод: Дублированный
Субтитры: Русские, украинские (форсированные)

Озвучивание - Дублированное (iTunes) + Субтитры ~ на 7 мин.
Сохранены оригинальные чаптеры.

Релиз:  Rip by:


[+] x264

x264 [info]: frame I:1896  Avg QP:15.73  size: 82177
x264 [info]: frame P:53559 Avg QP:19.89  size: 28656
x264 [info]: frame B:160221 Avg QP:21.59  size: 10168
x264 [info]: consecutive B-frames:  5.1%  5.1% 10.3% 18.1% 15.6% 31.6%  5.7%  1.3%  2.1%  2.3%  2.8%
x264 [info]: mb I  I16..4:  8.1% 67.2% 24.7%
x264 [info]: mb P  I16..4:  0.8% 12.5%  1.8%  P16..4: 29.9% 34.8% 12.4%  2.4%  0.3%    skip: 5.1%
x264 [info]: mb B  I16..4:  0.1%  2.4%  0.2%  B16..8: 37.4% 20.0%  3.6%  direct: 5.4%  skip:31.0%  L0:44.0% L1:44.4% BI:11.6%
x264 [info]: 8x8 transform intra:82.9% inter:61.7%
x264 [info]: direct mvs  spatial:96.9% temporal:3.1%
x264 [info]: coded y,uvDC,uvAC intra: 93.1% 83.0% 59.6% inter: 31.6% 26.4% 11.1%
x264 [info]: i16 v,h,dc,p: 16% 18%  8% 58%
x264 [info]: i8 v,h,dc,ddl,ddr,vr,hd,vl,hu:  6%  8%  8% 10% 15% 13% 15% 11% 14%
x264 [info]: i4 v,h,dc,ddl,ddr,vr,hd,vl,hu:  9% 10%  5%  8% 15% 12% 16% 10% 14%
x264 [info]: i8c dc,h,v,p: 41% 26% 15% 18%
x264 [info]: Weighted P-Frames: Y:6.1% UV:2.3%
x264 [info]: ref P L0: 45.3% 11.1% 17.8%  6.5%  5.6%  3.9%  3.7%  2.1%  1.9%  1.6%  0.5%  0.0%
x264 [info]: ref B L0: 69.6% 13.6%  6.6%  3.4%  2.4%  2.1%  1.6%  0.6%  0.2%
x264 [info]: ref B L1: 91.6%  8.4%
x264 [info]: kb/s:2952.29



[+] Инфо-файл

Общее
Уникальный идентификатор                 : 180987467509128754373332382840272709887 (0x8828EB173F1E5124BBF22A05C3D7E8FF)
Полное имя                               : D:ЗагрузкиF.9.2021.x264.BDRip.(AVC).OlLanDGroup.mkv
Формат                                   : Matroska
Версия формата                           : Version 4 / Version 2
Размер файла                             : 3,90 Гбайт
Продолжительность                        : 2 ч. 29 м.
Общий поток                              : 3723 Кбит/сек
Название фильма                          : Форсаж 9.2021.Rip by: ollan
Дата кодирования                         : UTC 2021-09-16 12:39:44
Программа кодирования                    : mkvmerge v6.5.0 ('Isn't she lovely') built on Oct 20 2013 12:50:05
Библиотека кодирования                   : libebml v1.3.0 + libmatroska v1.4.1
Обложка                                  : Yes
Attachments                              : Cover - F.9.png

Видео
Идентификатор                            : 1
Формат                                   : AVC
Формат/Информация                        : Advanced Video Codec
Профиль формата                          : High@L4.1
Настройки формата                        : CABAC / 10 Ref Frames
Параметр CABAC формата                   : Да
Параметр ReFrames формата                : 10 кадров
Идентификатор кодека                     : V_MPEG4/ISO/AVC
Продолжительность                        : 2 ч. 29 м.
Битрейт                                  : 2957 Кбит/сек
Ширина                                   : 1024 пикселя
Высота                                   : 428 пикселей
Соотношение сторон                       : 2,40:1
Режим частоты кадров                     : Постоянный
Частота кадров                           : 23,976 (24000/1001) кадра/сек
Цветовое пространство                    : YUV
Субдискретизация насыщенности            : 4:2:0
Битовая глубина                          : 8 бит
Тип развёртки                            : Прогрессивная
Бит/(Пиксели*Кадры)                      : 0.281
Размер потока                            : 3,02 Гбайт (77%)
Библиотека кодирования                   : x264 core 146 r2538 121396c
Настройки программы                      : cabac=1 / ref=10 / deblock=1:-3:-3 / analyse=0x3:0x133 / me=umh / subme=11 / psy=1 / psy_rd=0.95:0.05 / mixed_ref=1 / me_range=64 / chroma_me=1 / trellis=2 / 8x8dct=1 / cqm=0 / deadzone=21,11 / fast_pskip=0 / chroma_qp_offset=-3 / threads=12 / lookahead_threads=3 / sliced_threads=0 / nr=0 / decimate=0 / interlaced=0 / bluray_compat=0 / constrained_intra=0 / bframes=10 / b_pyramid=2 / b_adapt=2 / b_bias=0 / direct=3 / weightb=1 / open_gop=0 / weightp=2 / keyint=240 / keyint_min=23 / scenecut=40 / intra_refresh=0 / rc_lookahead=40 / rc=2pass / mbtree=1 / bitrate=2957 / ratetol=1.0 / qcomp=0.60 / qpmin=0 / qpmax=69 / qpstep=4 / cplxblur=20.0 / qblur=0.5 / vbv_maxrate=50000 / vbv_bufsize=62500 / nal_hrd=none / filler=0 / ip_ratio=1.40 / aq=1:1.00
Язык                                     : English
Default                                  : Да
Forced                                   : Нет

Аудио #1
Идентификатор                            : 2
Формат                                   : AC-3
Формат/Информация                        : Audio Coding 3
Идентификатор кодека                     : A_AC3
Продолжительность                        : 2 ч. 29 м.
Вид битрейта                             : Постоянный
Битрейт                                  : 384 Кбит/сек
Каналы                                   : 6 каналов
Расположение каналов                     : Front: L C R, Side: L R, LFE
Частота                                  : 48,0 КГц
Частота кадров                           : 31,250 кадров/сек (1536 SPF)
Битовая глубина                          : 16 бит
Метод сжатия                             : С потерями
Размер потока                            : 412 Мбайт (10%)
Заголовок                                : iTunes
Язык                                     : Russian
Service kind                             : Complete Main
Default                                  : Да
Forced                                   : Нет

Аудио #2
Идентификатор                            : 3
Формат                                   : AC-3
Формат/Информация                        : Audio Coding 3
Идентификатор кодека                     : A_AC3
Продолжительность                        : 2 ч. 29 м.
Вид битрейта                             : Постоянный
Битрейт                                  : 384 Кбит/сек
Каналы                                   : 6 каналов
Расположение каналов                     : Front: L C R, Side: L R, LFE
Частота                                  : 48,0 КГц
Частота кадров                           : 31,250 кадров/сек (1536 SPF)
Битовая глубина                          : 16 бит
Метод сжатия                             : С потерями
Размер потока                            : 412 Мбайт (10%)
Заголовок                                : iTunes
Язык                                     : Ukrainian
Service kind                             : Complete Main
Default                                  : Нет
Forced                                   : Нет

Текст #1
Идентификатор                            : 4
Формат                                   : UTF-8
Идентификатор кодека                     : S_TEXT/UTF8
Идентификатор кодека/Информация          : UTF-8 Plain Text
Заголовок                                : Forced
Язык                                     : Russian
Default                                  : Да
Forced                                   : Нет

Текст #2
Идентификатор                            : 5
Формат                                   : UTF-8
Идентификатор кодека                     : S_TEXT/UTF8
Идентификатор кодека/Информация          : UTF-8 Plain Text
Заголовок                                : Forced
Язык                                     : Ukrainian
Default                                  : Нет
Forced                                   : Нет

Меню
00:00:00.000                             : en:Chapter 01
00:04:47.746                             : en:Chapter 02
00:12:27.914                             : en:Chapter 03
00:21:53.270                             : en:Chapter 04
00:26:43.268                             : en:Chapter 05
00:31:43.568                             : en:Chapter 06
00:35:36.718                             : en:Chapter 07
00:45:33.773                             : en:Chapter 08
00:53:42.761                             : en:Chapter 09
01:01:12.669                             : en:Chapter 10
01:05:24.295                             : en:Chapter 11
01:13:55.472                             : en:Chapter 12
01:25:26.121                             : en:Chapter 13
01:35:27.805                             : en:Chapter 14
01:41:34.129                             : en:Chapter 15
01:47:08.380                             : en:Chapter 16
01:57:42.472                             : en:Chapter 17
02:08:02.091                             : en:Chapter 18
02:12:25.479                             : en:Chapter 19
02:17:20.941                             : en:Chapter 20




Скриншоты:
[+] Всего файлов в раздаче - 1:
F.9.2021.x264.BDRip.(AVC).OlLanDGroup.mkv3.90 GB

Показать еще раздачи по запросу форсаж:
2021-10-05 U Форсаж 9 / F9 (2021) WEB-DLRip-AVC | Театральная версия | Локализованная версия | D 2.18 GB ↑ 40 ↓ 22
2021-10-04 U Форсаж 9 / F9 (2021) WEB-DL 1080p от селезень | Театральная версия | Локализованная версия | D 7.50 GB ↑ 34 ↓ 18
2021-09-18 U Форсаж 9 / F9 (2021) BDRip 1080p | iTunes | Режиссерская версия 16.51 GB ↑ 48 ↓ 22
2021-09-17 U Форсаж 9 / F9 (2021) BDRip от Twister & ExKinoRay | Режиссерская версия | iTunes 1.46 GB ↑ 61 ↓ 23
2021-09-17 U Форсаж 9 / F9 (2021) BDRip от Twister & ExKinoRay | Режиссерская версия | iTunes 2.12 GB ↑ 37 ↓ 5
2021-09-16 U Форсаж 9 / F9 (2021) BDRip 720p от HD-Кинозал | iTunes | Режиссерская версия 7.68 GB ↑ 64 ↓ 23
2021-09-16 U Форсаж 9 / F9 (2021) HDRip-AVC | Режиссерская версия | iTunes 3.49 GB ↑ 48 ↓ 28

Отзывы
Зарегистрируйтесь чтобы добавить комментарий.
Загрузите программу
  byTorrent
Обратная связь
Copyleft ©