↑↓Torrent.by
Поиск
Логин: Регистрация
Пароль: Восстановить пароль

Angry Birds 2 в кино / The Angry Birds Movie 2 (2019) BDRip-HEVC 1080p от xdemon | iTunes

Скачать angry-birds-2-v-kino-the-movie-2019-bdrip-hevc-1080p-ot-xdemon-itunes.torrent
U Магнитная ссылка Размер: 3.28 GB Раздают: 76 Качают: 12 Добавлен: 2019-11-05 04:32:02
Angry Birds 2 в кино / The Angry Birds Movie 2 (2019) BDRip-HEVC 1080p от xdemon | iTunes

Название: Angry Birds 2 в кино
Оригинальное название: The Angry Birds Movie 2 (2019)
Год выхода: 2019
Жанр: Мультфильм, комедия, приключения, семейный, полнометражный
Режиссер: Туроп Ван Орман, Джон Райс
В ролях: Аквафина, Дав Кэмерон, Билл Хэйдер, Дэнни Макбрайд, Питер Динклэйдж, Тиффани Хэддиш, Майя Рудольф, Джейсон Судейкис, Стерлинг К. Браун, Эухенио Дербес, Джош Гэд, Лесли Джонс, Рэйчел Блум

О фильме:
Птицы узнали о существовании голодных зелёных свиней, после чего началась священная война, которая длилась многие годы. Однако теперь на горизонте появился новый враг - Зета, обитательница третьего, замёрзшего острова. Она считает, что все должны почувствовать на себе силу холода, и начинает атаку на дальних родственников, обитающих в тёплых краях. Теперь птицы и свиньи должны объединиться, чтобы остановить заморозки.

Страна: США, Финляндия
Студия: Rovio Animation, Sony Pictures Animation
Продолжительность: 01:36:47
Перевод: Дублированный | iTunes

Файл
Формат: MKV
Кодек: HVEC
Качество: BDRip-HEVC 1080p
Видео: 1920x1036, 4 468 kb/s, 23.976 fps, 10 bits
Звук: 48 kHz, AC-3, 5.1, 384 Kbps | iTunes | RUS

Семпл
[+] MI
General
Unique ID                                : 313920020801568617201722917845902284502 (0xEC2ACBFC6CA4B7F2003AC1837BEFD6D6)
Complete name                            : /mnt/5d73b413-b631-4fe6-8303-b24a1a83b807/The.Angry.Birds.Movie.2.2019.BDRip-HEVC 1080p.xdemon.mkv
Format                                   : Matroska
Format version                           : Version 4 / Version 2
File size                                : 3.28 GiB
Duration                                 : 1 h 36 min
Overall bit rate                         : 4 854 kb/s
Movie name                               : The Angry Birds Movie 2 2019
Encoded date                             : UTC 2019-11-04 10:28:52
Writing application                      : mkvmerge v38.0.0 ('The Silent Type') 64-bit
Writing library                          : libebml v1.3.9 + libmatroska v1.5.2 / Lavf58.20.100

Video
ID                                       : 1
Format                                   : HEVC
Format/Info                              : High Efficiency Video Coding
Format profile                           : Main 10@L4@Main
Codec ID                                 : V_MPEGH/ISO/HEVC
Duration                                 : 1 h 36 min
Bit rate                                 : 4 468 kb/s
Width                                    : 1 920 pixels
Height                                   : 1 036 pixels
Display aspect ratio                     : 1.85:1
Frame rate mode                          : Constant
Frame rate                               : 23.976 (24000/1001) FPS
Color space                              : YUV
Chroma subsampling                       : 4:2:0
Bit depth                                : 10 bits
Bits/(Pixel*Frame)                       : 0.094
Stream size                              : 3.02 GiB (92%)
Writing library                          : x265 2.9:[Linux][GCC 7.3.0][64 bit] 10bit
Encoding settings                        : cpuid=1310959 / frame-threads=2 / wpp / no-pmode / no-pme / no-psnr / no-ssim / log-level=2 / input-csp=1 / input-res=1920x1036 / interlace=0 / total-frames=0 / level-idc=0 / high-tier=1 / uhd-bd=0 / ref=3 / no-allow-non-conformance / no-repeat-headers / annexb / no-aud / no-hrd / info / hash=0 / no-temporal-layers / open-gop / min-keyint=24 / keyint=240 / gop-lookahead=0 / bframes=4 / b-adapt=2 / b-pyramid / bframe-bias=0 / rc-lookahead=20 / lookahead-slices=6 / scenecut=40 / radl=0 / no-intra-refresh / ctu=64 / min-cu-size=8 / no-rect / no-amp / max-tu-size=32 / tu-inter-depth=1 / tu-intra-depth=1 / limit-tu=0 / rdoq-level=0 / dynamic-rd=0,00 / no-ssim-rd / signhide / no-tskip / nr-intra=0 / nr-inter=0 / no-constrained-intra / strong-intra-smoothing / max-merge=2 / limit-refs=3 / no-limit-modes / me=1 / subme=7 / merange=57 / temporal-mvp / weightp / no-weightb / no-analyze-src-pics / deblock=0:0 / sao / no-sao-non-deblock / rd=3 / no-early-skip / rskip / no-fast-intra / no-tskip-fast / no-cu-lossless / no-b-intra / no-splitrd-skip / rdpenalty=0 / psy-rd=2,00 / psy-rdoq=0,00 / no-rd-refine / no-lossless / cbqpoffs=0 / crqpoffs=0 / rc=crf / crf=18,0 / qcomp=0,60 / qpstep=4 / stats-write=0 / stats-read=0 / ipratio=1,40 / pbratio=1,30 / aq-mode=1 / aq-strength=1,00 / cutree / zone-count=0 / no-strict-cbr / qg-size=32 / no-rc-grain / qpmax=69 / qpmin=0 / no-const-vbv / sar=1 / overscan=0 / videoformat=5 / range=0 / colorprim=1 / transfer=1 / colormatrix=1 / chromaloc=0 / display-window=0 / max-cll=0,0 / min-luma=0 / max-luma=1023 / log2-max-poc-lsb=8 / vui-timing-info / vui-hrd-info / slices=1 / no-opt-qp-pps / no-opt-ref-list-length-pps / no-multi-pass-opt-rps / scenecut-bias=0,05 / no-opt-cu-delta-qp / no-aq-motion / no-hdr / no-hdr-opt / no-dhdr10-opt / no-idr-recovery-sei / analysis-reuse-level=5 / scale-factor=0 / refine-intra=0 / refine-inter=0 / refine-mv=0 / no-limit-sao / ctu-info=0 / no-lowpass-dct / refine-mv-type=0 / copy-pic=1 / max-ausize-factor=1,0 / no-dynamic-refine / no-single-sei
Default                                  : Yes
Forced                                   : No
Color range                              : Limited
Color primaries                          : BT.709
Transfer characteristics                 : BT.709
Matrix coefficients                      : BT.709

Audio
ID                                       : 2
Format                                   : AC-3
Format/Info                              : Audio Coding 3
Codec ID                                 : A_AC3
Duration                                 : 1 h 36 min
Bit rate mode                            : Constant
Bit rate                                 : 384 kb/s
Channel(s)                               : 6 channels
Channel positions                        : Front: L C R, Side: L R, LFE
Sampling rate                            : 48.0 kHz
Frame rate                               : 31.250 FPS (1536 SPF)
Bit depth                                : 16 bits
Compression mode                         : Lossy
Stream size                              : 266 MiB (8%)
Title                                    : iTunes
Language                                 : Russian
Service kind                             : Complete Main
Default                                  : Yes
Forced                                   : Yes



Скриншоты:
[+] Всего файлов в раздаче - 1:
The.Angry.Birds.Movie.2.2019.BDRip-HEVC 1080p.xdemon.mkv3.28 GB

Показать еще раздачи по запросу angry:
2019-11-11 U Грозная красная планета / The Angry Red Planet (1959) BDRip-AVC | L1 1.45 GB ↑ 32 ↓ 4
2019-11-09 U Angry Birds 2 в кино / The Angry Birds Movie 2 (2019) BDRip-HEVC 1080p | iTunes 4.64 GB ↑ 63 ↓ 36
2019-11-04 U Angry Birds 2 в кино / The Angry Birds Movie 2 (2019) BDRip от Twister & ExKinoRay | iTunes 1.42 GB ↑ 136 ↓ 24
2019-11-02 U Angry Birds 2 в кино / The Angry Birds Movie 2 (2019) BDRip-AVC от ExKinoRay | iTunes 1К1.99 GB ↑ 372 ↓ 122
2019-11-01 U Angry Birds 2 в кино / The Angry Birds Movie 2 (2019) BDRemux 1080p от селезень | iTunes 17.27 GB ↑ 66 ↓ 48
2019-10-31 U Angry Birds 2 в кино / The Angry Birds Movie 2 (2019) HDRip-AVC от OlLanDGroup | iTunes 745.99 MB ↑ 84 ↓ 34
2019-10-31 U Angry Birds 2 в кино / The Angry Birds Movie 2 (2019) BDRip 720p от селезень | iTunes 5.15 GB ↑ 217 ↓ 137

Отзывы
Зарегистрируйтесь чтобы добавить комментарий.
Обратная связь
Copyleft ©