↑↓torrent.by
Поиск
Логин: Регистрация
Пароль: Восстановить пароль

Король / The King (2019) WEB-DLRip-AVC от OllanDGroup | Пифагор

Скачать korol-the-king-2019-web-dlrip-avc-ot-ollandgroup-pifagor.torrent
U Магнитная ссылка Размер: 1.44 GB Раздают: 79 Качают: 17 Добавлен: 2019-11-05 04:32:16
Король / The King (2019) WEB-DLRip-AVC от OllanDGroup | Пифагор

Информация о фильме
Название: Король
Оригинальное название: The King
Год выпуска: 2019
Жанр: Драма, мелодрама, военный, биография, история
Режиссер: Дэвид Мишо
В ролях: Тимоти Шаламе, Джоэл Эдгертон, Роберт Паттинсон, Бен Мендельсон, Шон Харрис, Лили-Роуз Депп, Том Глинн-Карни, Томасин МакКензи, Дин-Чарльз Чепмен, Тара Фитцджеральд

О фильме:
История молодого английского короля Генриха V. Взойдя на престол в мрачные времена Столетней войны, он становится одним из величайших полководцев своей эпохи.

Страна: Великобритания, Венгрия, Австралия
Студия: Blue-Tongue Films, NetFlix, Pioneer Stilking Films, Plan B Entertainment, Porchlight Films Pty. Ltd., Yoki
Продолжительность: 02:20:30
Перевод: Дублированный | Пифагор

Файл
Формат: MKV
Качество: WEB-DLRip-AVC
Источник: |The.King.2019.1080p.WEB-DL.DUB.EniaHD| (спасибо ZgurVas)
Видео: 720x300 (2.40:1), 24 fps, х264 ~1419 kbps avg, 0.274 bit/pixel
Звук: 48 kHz, HE-AAC, 2 ch, ~64 kbps avg | RUS
Субтитры: Русские (forced, full), английские (forced, full, SDH)

Релиз:


[+] MediaInfo:
General
Unique ID : 111826715279636368764836699643826569104 (0x54210ABD7E82A188B066AEADC66A7F90)
Complete name : D:OlLanDGroupThe.King.2019.WEB-DLRip(AVC).1.45Gb.OllanDGroup.mkv
Format : Matroska
Format version : Version 4
File size : 1.44 GiB
Duration : 2 h 20 min
Overall bit rate : 1 465 kb/s
Movie name : The.King.2019.WEB-DLRip(AVC).1.45Gb.OllanDGroup#Skandar#
Encoded date : UTC 2019-11-04 01:12:38
Writing application : mkvmerge v31.0.0 ('Dolores In A Shoestand') 64-bit
Writing library : libebml v1.3.6 + libmatroska v1.4.9

Video
ID : 1
Format : AVC
Format/Info : Advanced Video Codec
Format profile : High@L4.1
Format settings : CABAC / 10 Ref Frames
Format settings, CABAC : Yes
Format settings, ReFrames : 10 frames
Codec ID : V_MPEG4/ISO/AVC
Duration : 2 h 20 min
Bit rate : 1 419 kb/s
Width : 720 pixels
Height : 300 pixels
Display aspect ratio : 2.40:1
Frame rate mode : Constant
Frame rate : 24.000 FPS
Color space : YUV
Chroma subsampling : 4:2:0
Bit depth : 8 bits
Scan type : Progressive
Bits/(Pixel*Frame) : 0.274
Stream size : 1.37 GiB (95%)
Title : The.King.2019.WEB-DLRip(AVC).1.45Gb.OllanDGroup#Skandar#
Writing library : x264 core 146 r2538 121396c
Encoding settings : cabac=1 / ref=10 / deblock=1:-3:-3 / analyse=0x3:0x133 / me=umh / subme=11 / psy=1 / psy_rd=0.97:0.05 / mixed_ref=1 / me_range=48 / chroma_me=1 / trellis=2 / 8x8dct=1 / cqm=0 / deadzone=21,11 / fast_pskip=0 / chroma_qp_offset=-3 / threads=6 / lookahead_threads=1 / sliced_threads=0 / nr=0 / decimate=0 / interlaced=0 / bluray_compat=0 / constrained_intra=0 / bframes=11 / b_pyramid=2 / b_adapt=2 / b_bias=0 / direct=3 / weightb=1 / open_gop=0 / weightp=2 / keyint=240 / keyint_min=23 / scenecut=40 / intra_refresh=0 / rc_lookahead=40 / rc=2pass / mbtree=0 / bitrate=1419 / ratetol=1.0 / qcomp=0.60 / qpmin=0 / qpmax=69 / qpstep=4 / cplxblur=20.0 / qblur=0.5 / vbv_maxrate=50000 / vbv_bufsize=62500 / nal_hrd=none / filler=0 / ip_ratio=1.40 / pb_ratio=1.30 / aq=1:1.00
Language : Russian
Default : Yes
Forced : No

Audio
ID : 2
Format : AAC LC SBR
Format/Info : Advanced Audio Codec Low Complexity with Spectral Band Replication
Commercial name : HE-AAC
Format settings : Explicit
Codec ID : A_AAC-2
Duration : 2 h 20 min
Bit rate : 64.0 kb/s
Channel(s) : 2 channels
Channel layout : L R
Sampling rate : 48.0 kHz
Frame rate : 23.438 FPS (2048 SPF)
Compression mode : Lossy
Delay relative to video : 31 ms
Stream size : 64.3 MiB (4%)
Title : DUB (Пифагор)
Language : Russian
Default : Yes
Forced : No

Text #1
ID : 3
Format : UTF-8
Codec ID : S_TEXT/UTF8
Codec ID/Info : UTF-8 Plain Text
Duration : 2 h 19 min
Bit rate : 1 b/s
Count of elements : 33
Stream size : 1.62 KiB (0%)
Title : Forced
Language : Russian
Default : Yes
Forced : Yes

Text #2
ID : 4
Format : UTF-8
Codec ID : S_TEXT/UTF8
Codec ID/Info : UTF-8 Plain Text
Duration : 2 h 19 min
Bit rate : 59 b/s
Count of elements : 1193
Stream size : 60.9 KiB (0%)
Title : Full
Language : Russian
Default : No
Forced : No

Text #3
ID : 5
Format : UTF-8
Codec ID : S_TEXT/UTF8
Codec ID/Info : UTF-8 Plain Text
Duration : 1 h 11 min
Bit rate : 1 b/s
Count of elements : 35
Stream size : 959 Bytes (0%)
Title : Forced
Language : English
Default : No
Forced : No

Text #4
ID : 6
Format : UTF-8
Codec ID : S_TEXT/UTF8
Codec ID/Info : UTF-8 Plain Text
Duration : 2 h 9 min
Bit rate : 41 b/s
Count of elements : 1361
Stream size : 39.7 KiB (0%)
Title : Full
Language : English
Default : No
Forced : No

Text #5
ID : 7
Format : UTF-8
Codec ID : S_TEXT/UTF8
Codec ID/Info : UTF-8 Plain Text
Duration : 2 h 10 min
Bit rate : 50 b/s
Count of elements : 1814
Stream size : 48.2 KiB (0%)
Title : Full, SDH
Language : English
Default : No
Forced : No



Скриншоты:
[+] Всего файлов в раздаче - 1:
The.King.2019.WEB-DLRip(AVC).1.45Gb.OllanDGroup.mkv1.44 GB

Показать еще раздачи по запросу король:
2019-12-01 U Король Лев / The Lion King (2019) BDRip 720p от Scarabey | Лицензия 5.66 GB ↑ 70 ↓ 12
2019-11-30 U Король Лев / The Lion King (2019) HDRip от Scarabey | Лицензия 1К745.00 MB ↑ 80 ↓ 8
2019-11-29 U Король Лев / The Lion King (2019) HDRip от Scarabey | Лицензия 1.44 GB ↑ 237 ↓ 11
2019-11-28 U Король Лев / The Lion King (2019) BDRip-HEVC 1080p от HEVC-CLUB | Лицензия 7.75 GB ↑ 28 ↓ 12
2019-11-27 U Король Лев / The Lion King (2019) BDRip от MegaPeer | Лицензия 2.18 GB ↑ 111 ↓ 37
2019-11-27 U Король Лев / The Lion King (2019) BDRip 1080p от селезень | Лицензия 15.83 GB ↑ 76 ↓ 49
2019-11-10 U Король Лев / The Lion King (2019) BDRip 1080p от Ash61 | 3D-Video | halfOU | iTunes 11.33 GB ↑ 41 ↓ 18

Отзывы
Зарегистрируйтесь чтобы добавить комментарий.
Обратная связь
Copyleft ©