↑↓Torrent.by
Поиск
Логин: Регистрация
Пароль: Восстановить пароль

Алита: Боевой ангел / Alita: Battle Angel (2019) UHD BDRip-HEVC 1080p от HEVC-CLUB | SDR | Локализованная версия | Лицензия

Скачать alita-boevoy-angel-battle-2019-uhd-bdrip-hevc-1080p-ot-club-sdr-lokalizovannaya-versiya-licenziya.torrent
U Магнитная ссылка Размер: 7.05 GB Раздают: 52 Качают: 23 Добавлен: 2019-11-05 04:32:47
Алита: Боевой ангел / Alita: Battle Angel (2019) UHD BDRip-HEVC 1080p от HEVC-CLUB | SDR | Локализованная версия | Лицензия

Название: Алита: Боевой ангел
Оригинальное название: Alita: Battle Angel
Год выхода: 2019
Производство: Канада, Аргентина, США / Twentieth Century Fox, Lightstorm Entertainment, Troublemaker Studios
Жанр:  Фантастика, боевик, триллер, мелодрама, приключения
Продолжительность: 02:01:57

Режиссер: Роберт Родригес
В ролях: Роза Салазар, Кристоф Вальц, Дженнифер Коннелли, Махершала Али, Эд Скрейн, Джеки Эрл Хейли, Кин Джонсон, Хорхе Лендеборг мл., Лана Кондор, Идара Виктор

Описание: Действие фильма происходит через 300 лет после Великой войны в XXVI веке. Доктор Идо находит останки женщины-киборга. После починки киборг ничего не помнит, но обнаруживает, что в состоянии пользоваться боевыми приемами киборгов. Начинаются поиски утерянных воспоминаний.

Качество: UHD BDRip-HEVC 1080p
Видео: HEVC/H.265, 1920x804, ~6996 Kbps, 10 bit
Аудио 01: AC3, 6 ch, 640 Kbps | Русский, Дублированный
Аудио 02: AC3, 6 ch, 640 Kbps | Английский, Оригинал
Субтитры: Русские (форсированные, полные), английские (полные)

Релиз:


[+] Медиаинфо
x265 info: frame I:   1959, Avg QP:16.41  kb/s: 22555.90
x265 info: frame P:  35469, Avg QP:17.97  kb/s: 13634.67
x265 info: frame B: 138011, Avg QP:20.21  kb/s: 5068.33
x265 info: Weighted P-Frames: Y:8.5% UV:6.8%
x265 info: consecutive B-frames: 11.4% 7.1% 8.1% 27.3% 7.6% 22.8% 4.9% 4.6% 2.5% 1.7% 0.7% 0.8% 0.2% 0.1% 0.1% 0.0% 0.1%
x265 info: encoded 175439 frames in 115573.66s (1.52 fps), 6995.48 kb/s, Avg QP:19.72

Формат                                   : Matroska
Версия формата                           : Version 4
Размер файла                             : 7,05 Гбайт
Продолжительность                        : 2 ч. 1 м.
Общий поток                              : 8279 Кбит/сек
Название фильма                          : Alita: Battle Angel (2019) [Локализованная версия] Encoded_by_M@kSIMus
Дата кодирования                         : UTC 2019-11-04 05:29:33
Программа кодирования                    : mkvmerge v38.0.0 ('The Silent Type') 64-bit
Библиотека кодирования                   : libebml v1.3.9 + libmatroska v1.5.2
Обложка                                  : Yes
Attachments                              : cover.jpg

Видео
Идентификатор                            : 1
Формат                                   : HEVC
Формат/Информация                        : High Efficiency Video Coding
Профиль формата                          : Main 10@L4.1@High
Идентификатор кодека                     : V_MPEGH/ISO/HEVC
Продолжительность                        : 2 ч. 1 м.
Битрейт                                  : 6996 Кбит/сек
Ширина                                   : 1920 пикселей
Высота                                   : 804 пикселя
Соотношение сторон                       : 2,40:1
Режим частоты кадров                     : Постоянный
Частота кадров                           : 23,976 (24000/1001) кадра/сек
Цветовое пространство                    : YUV
Субдискретизация насыщенности            : 4:2:0
Битовая глубина                          : 10 бит
Бит/(Пиксели*Кадры)                      : 0.189
Размер потока                            : 5,96 Гбайт (85%)
Библиотека кодирования                   : x265 3.2+5-354901970679:[Windows][clang 8.0.1][64 bit] 10bit
Настройки программы                      : cpuid=1049583 / frame-threads=5 / numa-pools=4 / wpp / no-pmode / no-pme / no-psnr / no-ssim / log-level=3 / input-csp=1 / input-res=1920x804 / interlace=0 / total-frames=0 / level-idc=41 / high-tier=1 / uhd-bd=0 / ref=5 / allow-non-conformance / no-repeat-headers / annexb / no-aud / no-hrd / info / hash=0 / no-temporal-layers / open-gop / min-keyint=24 / keyint=240 / gop-lookahead=0 / bframes=16 / b-adapt=2 / b-pyramid / bframe-bias=0 / rc-lookahead=40 / lookahead-slices=5 / scenecut=40 / radl=0 / no-splice / no-intra-refresh / ctu=32 / min-cu-size=8 / no-rect / no-amp / max-tu-size=32 / tu-inter-depth=4 / tu-intra-depth=4 / limit-tu=1 / rdoq-level=1 / dynamic-rd=0.00 / no-ssim-rd / signhide / no-tskip / nr-intra=0 / nr-inter=0 / no-constrained-intra / no-strong-intra-smoothing / max-merge=5 / limit-refs=1 / no-limit-modes / me=3 / subme=7 / merange=57 / temporal-mvp / no-frame-dup / no-hme / weightp / no-weightb / no-analyze-src-pics / deblock=-3:-3 / no-sao / no-sao-non-deblock / rd=3 / selective-sao=0 / early-skip / no-rskip / no-fast-intra / no-tskip-fast / no-cu-lossless / b-intra / no-splitrd-skip / rdpenalty=0 / psy-rd=2.00 / psy-rdoq=1.00 / no-rd-refine / no-lossless / cbqpoffs=0 / crqpoffs=0 / rc=crf / crf=20.0 / qcomp=0.60 / qpstep=4 / stats-write=0 / stats-read=0 / vbv-maxrate=50000 / vbv-bufsize=50000 / vbv-init=0.9 / crf-max=0.0 / crf-min=0.0 / ipratio=1.40 / pbratio=1.30 / aq-mode=3 / aq-strength=1.00 / no-cutree / zone-count=0 / no-strict-cbr / qg-size=32 / no-rc-grain / qpmax=69 / qpmin=0 / no-const-vbv / sar=1 / overscan=0 / videoformat=5 / range=0 / colorprim=1 / transfer=1 / colormatrix=1 / chromaloc=0 / display-window=0 / cll=0,0 / min-luma=0 / max-luma=1023 / log2-max-poc-lsb=8 / vui-timing-info / vui-hrd-info / slices=1 / no-opt-qp-pps / no-opt-ref-list-length-pps / no-multi-pass-opt-rps / scenecut-bias=0.05 / no-opt-cu-delta-qp / no-aq-motion / no-hdr / no-hdr-opt / no-dhdr10-opt / no-idr-recovery-sei / analysis-reuse-level=5 / scale-factor=0 / refine-intra=0 / refine-inter=0 / refine-mv=1 / refine-ctu-distortion=0 / no-limit-sao / ctu-info=0 / no-lowpass-dct / refine-analysis-type=0 / copy-pic=1 / max-ausize-factor=1.0 / no-dynamic-refine / no-single-sei / no-hevc-aq / no-svt / no-field / qp-adaptation-range=1.00
Язык                                     : Russian
Default                                  : Да
Forced                                   : Нет
Цветовой диапазон                        : Limited
Основные цвета                           : BT.709
Характеристики трансфера                 : BT.709
Коэффициенты матрицы                     : BT.709

Аудио #1
Идентификатор                            : 2
Формат                                   : AC-3
Формат/Информация                        : Audio Coding 3
Коммерческое название                    : Dolby Digital
Идентификатор кодека                     : A_AC3
Продолжительность                        : 2 ч. 1 м.
Вид битрейта                             : Постоянный
Битрейт                                  : 640 Кбит/сек
Каналы                                   : 6 каналов
ChannelLayout                            : L R C LFE Ls Rs
Частота                                  : 48,0 КГц
Частота кадров                           : 31,250 кадров/сек (1536 SPF)
Метод сжатия                             : С потерями
Размер потока                            : 558 Мбайт (8%)
Заголовок                                : Дубляж
Язык                                     : Russian
Default                                  : Да
Forced                                   : Нет

Аудио #2
Идентификатор                            : 3
Формат                                   : AC-3
Формат/Информация                        : Audio Coding 3
Коммерческое название                    : Dolby Digital
Идентификатор кодека                     : A_AC3
Продолжительность                        : 2 ч. 1 м.
Вид битрейта                             : Постоянный
Битрейт                                  : 640 Кбит/сек
Каналы                                   : 6 каналов
ChannelLayout                            : L R C LFE Ls Rs
Частота                                  : 48,0 КГц
Частота кадров                           : 31,250 кадров/сек (1536 SPF)
Метод сжатия                             : С потерями
Размер потока                            : 558 Мбайт (8%)
Заголовок                                : Original
Язык                                     : English
Default                                  : Нет
Forced                                   : Нет

Текст #1
Идентификатор                            : 4
Формат                                   : UTF-8
Идентификатор кодека                     : S_TEXT/UTF8
Идентификатор кодека/Информация          : UTF-8 Plain Text
Продолжительность                        : 2 с. 544 мс.
Битрейт                                  : 251 бит/сек
ElementCount                             : 1
Размер потока                            : 80,0 байт (0%)
Заголовок                                : Forced
Язык                                     : Russian
Default                                  : Да
Forced                                   : Да

Текст #2
Идентификатор                            : 5
Формат                                   : UTF-8
Идентификатор кодека                     : S_TEXT/UTF8
Идентификатор кодека/Информация          : UTF-8 Plain Text
Продолжительность                        : 2 ч. 1 м.
Битрейт                                  : 50 бит/сек
ElementCount                             : 1052
Размер потока                            : 44,9 Кбайт (0%)
Заголовок                                : Full
Язык                                     : Russian
Default                                  : Нет
Forced                                   : Нет

Текст #3
Идентификатор                            : 6
Формат                                   : UTF-8
Идентификатор кодека                     : S_TEXT/UTF8
Идентификатор кодека/Информация          : UTF-8 Plain Text
Продолжительность                        : 1 ч. 55 м.
Битрейт                                  : 41 бит/сек
ElementCount                             : 1347
Размер потока                            : 34,9 Кбайт (0%)
Заголовок                                : Full
Язык                                     : English
Default                                  : Нет
Forced                                   : Нет

Меню
00:00:00.000                             : :00:00:00.000
00:03:28.625                             : :00:03:28.625
00:07:51.680                             : :00:07:51.680
00:10:07.982                             : :00:10:07.982
00:13:06.703                             : :00:13:06.703
00:15:06.739                             : :00:15:06.739
00:18:04.542                             : :00:18:04.542
00:22:58.711                             : :00:22:58.711
00:25:35.325                             : :00:25:35.325
00:31:40.899                             : :00:31:40.899
00:33:29.216                             : :00:33:29.216
00:36:32.816                             : :00:36:32.816
00:38:30.892                             : :00:38:30.892
00:42:05.481                             : :00:42:05.481
00:45:58.214                             : :00:45:58.214
00:48:31.450                             : :00:48:31.450
00:52:57.007                             : :00:52:57.007
00:55:14.353                             : :00:55:14.353
01:00:39.761                             : :01:00:39.761
01:02:56.564                             : :01:02:56.564
01:05:16.788                             : :01:05:16.788
01:10:50.496                             : :01:10:50.496
01:13:37.288                             : :01:13:37.288
01:16:35.216                             : :01:16:35.216
01:18:52.227                             : :01:18:52.227
01:22:48.297                             : :01:22:48.297
01:24:55.340                             : :01:24:55.340
01:28:25.217                             : :01:28:25.217
01:33:18.551                             : :01:33:18.551
01:36:08.763                             : :01:36:08.763
01:41:54.692                             : :01:41:54.692
01:45:23.442                             : :01:45:23.442
01:48:16.490                             : :01:48:16.490
01:51:43.655                             : :01:51:43.655
01:54:43.668                             : :01:54:43.668
01:56:51.504                             : :01:56:51.504



Скриншоты:
[+] Всего файлов в раздаче - 1:
Alita Battle Angel (2019) [Локализованная версия] UHD BDRip 1080p [HEVC] 10 bit.mkv7.05 GB

Показать еще раздачи по запросу алита:
2019-11-11 U Алита: Боевой ангел / Alita: Battle Angel (2019) BDRip от HQ-ViDEO | Локализованная версия | Лицензия 2.18 GB ↑ 30 ↓ 12
2019-08-11 U Алита: Боевой ангел / Alita: Battle Angel (2019) UHD BDRip-HEVC 1440p | HDR | D | Локализованная версия | Лицензия 8.90 GB ↑ 57 ↓ 18
2019-07-19 U Алита: Боевой ангел / Alita: Battle Angel (2019) BDRip 720p от Scarabey | Лицензия 6.06 GB ↑ 106 ↓ 73
2019-07-15 U Алита: Боевой ангел / Alita: Battle Angel (2019) BDRip 1080p от qqss44 & MegaPeer | Локализованная версия | Лицензия 7.76 GB ↑ 318 ↓ 153
2019-07-14 U Алита: Боевой ангел / Alita: Battle Angel (2019) BDRip 1080p от селезень | Локализованная версия | D, P | Лицензия 9.85 GB ↑ 466 ↓ 263
2019-07-14 U Алита: Боевой ангел / Alita: Battle Angel (2019) BDRip от MegaPeer | Локализованная версия | Лицензия 2.18 GB ↑ 542 ↓ 51
2019-07-12 U Алита: Боевой ангел / Alita: Battle Angel (2019) BDRip 1080p от селезень | D, P | iTunes 11.94 GB ↑ 125 ↓ 174

Отзывы
Зарегистрируйтесь чтобы добавить комментарий.
Обратная связь
Copyleft ©