↑↓Torrent.by
Поиск
Логин: Регистрация
Пароль: Восстановить пароль

Большой кошачий побег / Mao yu tao hua yuan / Cats & Peachtopia (2018) BDRip 1080p | iTunes

Скачать bolshoy-koshachiy-pobeg-mao-yu-tao-hua-yuan-cats-peachtopia-2018-bdrip-1080p-itunes.torrent
U Магнитная ссылка Размер: 5.69 GB Раздают: 54 Качают: 15 Добавлен: 2019-11-06 05:55:55
Большой кошачий побег / Mao yu tao hua yuan / Cats & Peachtopia (2018) BDRip 1080p | iTunes

Название: Большой кошачий побег
Оригинальное название: Mao yu tao hua yuan / Cats & Peachtopia
Год выхода: 2018
Жанр: Мультфильм, комедия, приключения
Режиссер: Гэри Ван
Роли дублировали: Ева Финкельштейн, Диомид Виноградов, Прохор Чеховской, Алексей Шадхин, Глеб Глушенков

О фильме:
Большинство домашних котов, как наш герой Пухляш, привыкли довольствоваться жизнью в теплой и уютной квартире. Но его сын, рыжий котенок Шустрик, не из таких. Ему вечно не сидится на месте, и он очень хочет путешествовать. Мечтая однажды отправиться в удивительную Долину Розовых Снов, он сооружает летательный аппарат и улетает на нем через окно. Ленивому и неповоротливому Пухляшу только и остается, что отправиться на его поиски вместе с другом волнистым попугаем, ведь жизнь большого города таит немало опасностей для маленького котенка. Всех троих впереди ждет немало приключений и важных открытий!

Страна: Китай
Студия: Light Chaser Animation Studios
Продолжительность: 01:27:16
Перевод: Дублированный | iTunes

Файл
Кодек: x.264
Качество: BDRip 1080p
Видео: MPEG-4 AVC, 7449 Kбит/с, 1920x800, 24.000 кадр/с
Звук: ► Без Рекламы!
Аудио #1: Русский (АС3, 6 ch, 384 Кбит/с, 48.0 KHz) Профессиональный (дублированный) iTunes
Аудио #2: Английский (DTS, 6 ch, 1509 Кбит/с, 48.0 KHz)
Субтитры: отсутствуют
Трейлер




[+] MediaInfo
Источник: Cats.and.Peachtopia.2018.1080p.BluRay.x264-NTROPiC
General
Unique ID                      : 212168290738296301607288152513711667566 (0x9F9E205E4190CD989219DC535D27796E)
Complete name                  : Cats.and.Peachtopia.2018.BDRip.1080p.mkv
Format                         : Matroska
Format version                 : Version 4
File size                      : 5.69 GiB
Duration                       : 1 h 27 min
Overall bit rate               : 9 338 kb/s
Encoded date                   : UTC 2019-11-05 00:25:14
Writing application            : mkvmerge v7.1.0 ('Good Love') 64bit built on Jul 27 2014 13:06:55
Writing library                : libebml v1.3.0 + libmatroska v1.4.1

Video
ID                             : 1
Format                         : AVC
Format/Info                    : Advanced Video Codec
Format profile                 : High@L4.1
Format settings                : CABAC / 5 Ref Frames
Format settings, CABAC         : Yes
Format settings, Reference fra : 5 frames
Codec ID                       : V_MPEG4/ISO/AVC
Duration                       : 1 h 27 min
Bit rate                       : 7 449 kb/s
Width                          : 1 920 pixels
Height                         : 800 pixels
Display aspect ratio           : 2.40:1
Frame rate mode                : Constant
Frame rate                     : 24.000 FPS
Color space                    : YUV
Chroma subsampling             : 4:2:0
Bit depth                      : 8 bits
Scan type                      : Progressive
Bits/(Pixel*Frame)             : 0.202
Stream size                    : 4.54 GiB (80%)
Writing library                : x264 core 157 r2969 d4099dd
Encoding settings              : cabac=1 / ref=5 / deblock=1:-1:-1 / analyse=0x3:0x133 / me=umh / subme=10 / psy=1 / psy_rd=0.95:0.00 / mixed_ref=1 / me_range=24 / chroma_me=1 / trellis=2 / 8x8dct=1 / cqm=0 / deadzone=21,11 / fast_pskip=0 / chroma_qp_offset=-4 / threads=18 / lookahead_threads=1 / sliced_threads=0 / slices=4 / nr=0 / decimate=1 / interlaced=0 / bluray_compat=0 / constrained_intra=0 / bframes=3 / b_pyramid=2 / b_adapt=2 / b_bias=0 / direct=3 / weightb=1 / open_gop=0 / weightp=2 / keyint=240 / keyint_min=24 / scenecut=40 / intra_refresh=0 / rc=2pass / mbtree=0 / bitrate=7449 / ratetol=2.0 / qcomp=0.60 / qpmin=0 / qpmax=69 / qpstep=4 / cplxblur=20.0 / qblur=0.5 / ip_ratio=1.40 / pb_ratio=1.30 / aq=2:0.80
Language                       : English
Default                        : Yes
Forced                         : No

Audio #1
ID                             : 2
Format                         : AC-3
Format/Info                    : Audio Coding 3
Commercial name                : Dolby Digital
Codec ID                       : A_AC3
Duration                       : 1 h 27 min
Bit rate mode                  : Constant
Bit rate                       : 384 kb/s
Channel(s)                     : 6 channels
Channel layout                 : L R C LFE Ls Rs
Sampling rate                  : 48.0 kHz
Frame rate                     : 31.250 FPS (1536 SPF)
Bit depth                      : 16 bits
Compression mode               : Lossy
Stream size                    : 240 MiB (4%)
Title                          : DUB | iTunes
Language                       : Russian
Service kind                   : Complete Main
Default                        : Yes
Forced                         : No

Audio #2
ID                             : 3
Format                         : DTS
Format/Info                    : Digital Theater Systems
Codec ID                       : A_DTS
Duration                       : 1 h 27 min
Bit rate mode                  : Constant
Bit rate                       : 1 509 kb/s
Channel(s)                     : 6 channels
Channel layout                 : C L R Ls Rs LFE
Sampling rate                  : 48.0 kHz
Frame rate                     : 93.750 FPS (512 SPF)
Bit depth                      : 24 bits
Compression mode               : Lossy
Stream size                    : 942 MiB (16%)
Language                       : English
Default                        : No
Forced                         : No

Menu
00:00:00.000                   : it:Capitolo 01
00:04:26.708                   : it:Capitolo 02
00:08:16.958                   : it:Capitolo 03
00:12:11.708                   : it:Capitolo 04
00:16:42.833                   : it:Capitolo 05
00:21:00.708                   : it:Capitolo 06
00:24:57.166                   : it:Capitolo 07
00:28:55.666                   : it:Capitolo 08
00:33:15.333                   : it:Capitolo 09
00:37:32.416                   : it:Capitolo 10
00:41:37.416                   : it:Capitolo 11
00:46:38.500                   : it:Capitolo 12
00:50:34.750                   : it:Capitolo 13
00:54:45.000                   : it:Capitolo 14
00:59:32.166                   : it:Capitolo 15
01:03:41.916                   : it:Capitolo 16
01:08:18.291                   : it:Capitolo 17
01:13:20.416                   : it:Capitolo 18
01:17:26.541                   : it:Capitolo 19
01:23:26.875                   : it:Capitolo 20



Скриншоты:
[+] Всего файлов в раздаче - 1:
Cats.and.Peachtopia.2018.BDRip.1080p.mkv5.69 GB

Показать еще раздачи по запросу большой:
2019-10-06 U Маленькие секреты большой компании / Nous finirons ensemble (2019) BDRip-AVC от OlLanDGroup | iTunes 2.02 GB ↑ 66 ↓ 15
2019-10-04 U Маленькие секреты большой компании / Nous finirons ensemble (2019) BDRip от MegaPeer | iTunes 2.12 GB ↑ 123 ↓ 16
2019-10-04 U Маленькие секреты большой компании / Nous finirons ensemble (2019) BDRip 1080p от селезень | iTunes 15.42 GB ↑ 198 ↓ 61
2019-10-04 U Маленькие секреты большой компании / Nous finirons ensemble (2019) BDRip от MegaPeer | iTunes 1.46 GB ↑ 281 ↓ 68
2019-04-30 U Большой злой лис и другие сказки / Le grand méchant renard et autres contes... (2017) BDRip | SDI Media 1.46 GB ↑ 143 ↓ 27
2019-04-29 U Большой кошачий побег / Mao yu tao hua yuan / Cats & Peachtopia (2018) WEB-DLRip от MegaPeer | iTunes 1.46 GB ↑ 242 ↓ 62
2019-04-01 U В погоне за Бонни и Клайдом / Разбойники с большой дороги / The Highwaymen (2019) WEB-DLRip от Scarabey | АРК-ТВ Studio & VSI International 2.17 GB ↑ 104 ↓ 32

Отзывы
Зарегистрируйтесь чтобы добавить комментарий.
Обратная связь
Copyleft ©