↑↓Torrent.by
Поиск
Логин: Регистрация
Пароль: Восстановить пароль

Волшебник (2019) WEB-DLRip от GeneralFilm | iTunes

Скачать volshebnik-2019-web-dlrip-ot-generalfilm-itunes.torrent
U Магнитная ссылка Размер: 744.93 MB Раздают: 30 Качают: 14 Добавлен: 2019-11-06 11:39:36
Волшебник (2019) WEB-DLRip от GeneralFilm | iTunes

Оригинальное название: Волшебник
Год выпуска: 2019
Жанр:  Комедия, драма
Выпущено: Россия, «RSS Production»
Режиссер: Михаил Морсков
В ролях: Семен Трескунов, Максим Суханов, Ангелина Стречина, Ирина Купченко, Владимир Капустин, Ирина Яковлева, Иван Охлобыстин, Сергей Чонишвили, Сергей Аброскин, Екатерина Маликова

О фильме: В прошлом популярный рок-музыкант Фима влачит жалкое существование, растратив свой талант и предаваясь разгульному образу жизни. Все меняется, когда уроки на гитаре у него начинает брать мальчик Рома, страдающий ДЦП и отчаянно жаждущий завоевать сердце своей одноклассницы Маши.

Файл
Качество: WEB-DLRip
Видео: XviD build 73, 720x272 (2.647), 25.000 fps, 1118 Kbps (0.228 bit/pixel)
Аудио: 48.0 kHz, MP3, 2/0 ch, 128 kbps
Продолжительность: 01:22:57
Перевод: Не требуется [Русский]
Cубтитры: нет

Релиз:
[+] MediaInfo
General
Complete name               : D:RazdachiVolshebnik.2019.WEB-DLRip.GeneralFilm.avi
Format                      : AVI
Format/Info                 : Audio Video Interleave
File size                   : 745 MiB
Duration                    : 1 h 22 min
Overall bit rate            : 1 256 kb/s
Writing application         : VirtualDubMod 1.5.10.3 | www.virtualdub-fr.org || (build 2550/release)
Writing library             : VirtualDubMod build 2550/release

Video
ID                          : 0
Format                      : MPEG-4 Visual
Format profile              : Advanced Simple@L5
Format settings             : BVOP1 / Custom Matrix
Format settings, BVOP       : 1
Format settings, QPel       : No
Format settings, GMC        : No warppoints
Format settings, Matrix     : Custom
Codec ID                    : XVID
Codec ID/Hint               : XviD
Duration                    : 1 h 22 min
Bit rate                    : 1 118 kb/s
Width                       : 720 pixels
Height                      : 272 pixels
Display aspect ratio        : 2.647
Frame rate                  : 25.000 FPS
Color space                 : YUV
Chroma subsampling          : 4:2:0
Bit depth                   : 8 bits
Scan type                   : Progressive
Compression mode            : Lossy
Bits/(Pixel*Frame)          : 0.228
Stream size                 : 663 MiB (89%)
Writing library             : XviD 73

Audio
ID                          : 1
Format                      : MPEG Audio
Format version              : Version 1
Format profile              : Layer 3
Codec ID                    : 55
Codec ID/Hint               : MP3
Duration                    : 1 h 22 min
Bit rate mode               : Constant
Bit rate                    : 128 kb/s
Channel(s)                  : 2 channels
Sampling rate               : 48.0 kHz
Frame rate                  : 41.667 FPS (1152 SPF)
Compression mode            : Lossy
Stream size                 : 75.9 MiB (10%)
Alignment                   : Aligned on interleaves
Interleave, duration        : 40  ms (1.00 video frame)
Interleave, preload duratio : 504  ms
Writing library             : LAME3.99r
Encoding settings           : -m s -V 4 -q 2 -lowpass 17 -b 128



Скриншоты:
[+] Всего файлов в раздаче - 1:
Volshebnik.2019.WEB-DLRip.GeneralFilm.avi744.93 MB

Показать еще раздачи по запросу волшебник:
2019-11-10 U Волшебник (2019) WEB-DLRip от Scarabey | iTunes 1К1.39 GB ↑ 33 ↓ 11
2019-11-04 U Волшебник (2019) WEB-DLRip от Files-x | iTunes 1.37 GB ↑ 99 ↓ 24
2019-11-04 U Волшебник (2019) WEB-DL 1080p | iTunes 3.19 GB ↑ 361 ↓ 106
2019-11-04 U Волшебник (2019) WEB-DLRip-AVC от Files-x | iTunes 1.46 GB ↑ 30 ↓ 17
2019-11-04 U Волшебник (2019) WEB-DLRip | iTunes 1.46 GB ↑ 184 ↓ 49
2019-08-30 U Волшебник [01-08 из 08] (2019) HDTVRip-AVC от Files-x 6.14 GB ↑ 144 ↓ 70
2019-08-30 U Волшебник [01-08 из 08] (2017) SATRip 4.69 GB ↑ 385 ↓ 333

Отзывы
r29blr Оценка: 6
Отличный фильм , мне понравился .

Зарегистрируйтесь чтобы добавить комментарий.
Обратная связь
Copyleft ©