↑↓Torrent.by
Поиск
Логин: Регистрация
Пароль: Восстановить пароль

Элефант (2019) WEB-DL 720p | iTunes

Скачать elefant-2019-web-dl-720p-itunes.torrent
U Магнитная ссылка Размер: 2.06 GB Раздают: 57 Качают: 7 Добавлен: 2019-11-07 06:40:55
Элефант (2019) WEB-DL 720p | iTunes

Название: Элефант
Год выпуска: 2019
Жанр:  Комедия
Режиссёр: Алексей Красовский
В ролях: Алексей Гуськов, Полина Агуреева, Евгения Дмитриева, Ян Цапник, Фредерик Бегбедер, Алиса Мынай, Ингрид Олеринская, Геннадий Смирнов, Игорь Хрипунов, Сергей Колос, Юлия Топольницкая, Надежда Толубеева, Михаил Касапов, Алиса Слепян, Максим Белбородов, Ольга Кирсанова-Миропольская, Полина Войченко

Описание:
У добрых книжек про Слона Мишку был очень злобный автор. И, даже когда Валентину Шубину из-за болезни пересадили новое сердце, он предпочел, чтобы все прочее оставалось старым. Шубин давно развелся с женой и поссорился с дочерью, ради которой когда-то писал свои истории. Но писать продолжение он не хочет, тем более, в компании навязанной ему приставучей сиделки. Хуже которой лишь то, что теперь у Шубина в самый неподходящий момент непроизвольно текут слезы…

Страна: Россия
Студия: Кинокомпания 58,5 Продакшн, Кинокомпания СТВ
Продолжительность: 01:15:45
Перевод: не требуется (оригинал) | iTunes

Файл
Формат: MKV
Качество: WEB-DL 720p
Видео: AVC/H.264, 1280x538 (2.40:1), 25 fps, ~3504 Kbps
Аудио: AC3, 6 ch, 384 Kbps
Субтитры: Отсутствуют


[+] M/I
Общее
Формат                                   : Matroska
Версия формата                           : Version 4
Размер файла                             : 2,06 Гбайт
Продолжительность                        : 1 ч. 15 м.
Общий поток                              : 3890 Кбит/сек
Название фильма                          : Elefant.2019
Дата кодирования                         : UTC 2019-11-06 07:39:15
Программа кодирования                    : mkvmerge v39.0.0 ('In The Waiting Line') 64-bit
Библиотека кодирования                   : libebml v1.3.9 + libmatroska v1.5.2 / Lavf57.71.100

Видео
Идентификатор                            : 1
Формат                                   : AVC
Формат/Информация                        : Advanced Video Codec
Профиль формата                          : Main@L3.1
Настройки формата                        : CABAC / 1 Ref Frames
Параметр CABAC формата                   : Да
Параметр RefFrames формата               : 1 кадр
Идентификатор кодека                     : V_MPEG4/ISO/AVC
Продолжительность                        : 1 ч. 15 м.
Битрейт                                  : 3504 Кбит/сек
Ширина                                   : 1280 пикселей
Высота                                   : 538 пикселей
Соотношение сторон                       : 2,40:1
Режим частоты кадров                     : Постоянный
Частота кадров                           : 25,000 кадров/сек
Цветовое пространство                    : YUV
Субдискретизация насыщенности            : 4:2:0
Битовая глубина                          : 8 бит
Тип развёртки                            : Прогрессивная
Бит/(Пиксели*Кадры)                      : 0.204
Размер потока                            : 1,85 Гбайт (90%)
Default                                  : Да
Forced                                   : Нет

Аудио
Идентификатор                            : 2
Формат                                   : AC-3
Формат/Информация                        : Audio Coding 3
Коммерческое название                    : Dolby Digital
Идентификатор кодека                     : A_AC3
Продолжительность                        : 1 ч. 15 м.
Вид битрейта                             : Постоянный
Битрейт                                  : 384 Кбит/сек
Каналы                                   : 6 каналов
ChannelLayout                            : L R C LFE Ls Rs
Частота                                  : 48,0 КГц
Частота кадров                           : 31,250 кадров/сек (1536 SPF)
Метод сжатия                             : С потерями
Размер потока                            : 208 Мбайт (10%)
ServiceKind                              : Complete Main
Default                                  : Да
Forced                                   : Нет



Скриншоты:
[+] Всего файлов в раздаче - 1:
Elefant.2019.mkv2.06 GB

Похожие раздачи по запросу - элефант:
2019-11-07 U Элефант (2019) WEB-DLRip-AVC от Files-x | iTunes 1.46 GB ↑ 60 ↓ 22
2019-11-07 U Элефант (2019) WEB-DLRip от GeneralFilm | iTunes 744.75 MB ↑ 53 ↓ 17
2019-11-06 U Элефант (2019) WEB-DLRip | iTunes 744.23 MB ↑ 66 ↓ 32
2019-11-06 U Элефант (2019) WEB-DLRip-AVC | iTunes 1.46 GB ↑ 119 ↓ 42
2019-11-06 U Элефант (2019) WEB-DL 1080p | iTunes 2.90 GB ↑ 215 ↓ 125

Отзывы
Зарегистрируйтесь чтобы добавить комментарий.
Обратная связь
Copyleft ©