↑↓Torrent.by
Поиск
Логин: Регистрация
Пароль: Восстановить пароль

Элефант (2019) WEB-DLRip-AVC от Files-x | iTunes

Скачать elefant-2019-web-dlrip-avc-ot-files-x-itunes.torrent
U Магнитная ссылка Размер: 1.46 GB Раздают: 67 Качают: 22 Добавлен: 2019-11-07 06:41:08
Элефант (2019) WEB-DLRip-AVC от Files-x | iTunes

Оригинальное название: Элефант
Год выпуска: 2019
Жанр:  Комедия
Режиссер: Алексей Красовский
В ролях: Алексей Гуськов, Полина Агуреева, Евгения Дмитриева, Ян Цапник, Фредерик Бегбедер, Алиса Мынай, Ингрид Олеринская, Геннадий Смирнов, Игорь Хрипунов, Сергей Колос, Юлия Топольницкая, Надежда Толубеева, Михаил Касапов, Алиса Слепян, Максим Белбородов, Ольга Кирсанова-Миропольская, Полина Войченко

О фильме: У добрых книжек про Слона Мишку был очень злобный автор. И, даже когда Валентину Шубину из-за болезни пересадили новое сердце, он предпочёл, чтобы всё прочее оставалось старым. Шубин давно развёлся с женой и поссорился с дочерью, ради которой когда-то писал свои истории. Но писать продолжение он не хочет, тем более, в компании навязанной ему приставучей сиделки. Хуже которой лишь то, что теперь у Шубина в самый неподходящий момент непроизвольно текут слёзы…

Страна: Россия
Студия: Кинокомпания 58,5 Продакшн, Кинокомпания СТВ
Продолжительность: 01:15:45

Файл
Кодек: h.264
Качество: WEB-DLRip-AVC
Видео: MPEG-4 AVC, ~ 2 367 Кбит/с, 1024x432, 25 кадр/с
Аудио: AC3, 6 ch, 384 Кбит/с
Язык: Русский [iTunes]
Cубтитры: нет

Релиз:
[+] Media Info

General
Unique ID                                : 213490735270792055375706863658233656336 (0xA09CD1EAE98A0B039BBB2BD615827410)
Complete name                            : F:Elefant.(2019).WEB-DLRip.(AVC).by.Серый1779.Files-x.mkv
Format                                   : Matroska
Format version                           : Version 2
File size                                : 1.46 GiB
Duration                                 : 1 h 15 min
Overall bit rate                         : 2 752 kb/s
Encoded date                             : UTC 2019-11-06 12:48:20
Writing application                      : mkvmerge v7.8.0 ('River Man') 32bit built on Apr  3 2015 12:11:22
Writing library                          : libebml v1.3.1 + libmatroska v1.4.2

Video
ID                                       : 1
Format                                   : AVC
Format/Info                              : Advanced Video Codec
Format profile                           : High@L4.1
Format settings                          : CABAC / 10 Ref Frames
Format settings, CABAC                   : Yes
Format settings, RefFrames               : 10 frames
Codec ID                                 : V_MPEG4/ISO/AVC
Duration                                 : 1 h 15 min
Bit rate                                 : 2 367 kb/s
Width                                    : 1 024 pixels
Height                                   : 432 pixels
Display aspect ratio                     : 2.40:1
Frame rate mode                          : Constant
Frame rate                               : 25.000 FPS
Color space                              : YUV
Chroma subsampling                       : 4:2:0
Bit depth                                : 8 bits
Scan type                                : Progressive
Bits/(Pixel*Frame)                       : 0.214
Stream size                              : 1.22 GiB (84%)
Writing library                          : x264 core 146 r2538 121396c
Encoding settings                        : cabac=1 / ref=10 / deblock=1:-2:-1 / analyse=0x3:0x133 / me=umh / subme=11 / psy=1 / psy_rd=1.00:0.08 / mixed_ref=1 / me_range=32 / chroma_me=1 / trellis=2 / 8x8dct=1 / cqm=0 / deadzone=21,11 / fast_pskip=0 / chroma_qp_offset=-3 / threads=18 / lookahead_threads=3 / sliced_threads=0 / nr=0 / decimate=1 / interlaced=0 / bluray_compat=0 / constrained_intra=0 / bframes=11 / b_pyramid=2 / b_adapt=2 / b_bias=0 / direct=1 / weightb=1 / open_gop=0 / weightp=2 / keyint=250 / keyint_min=25 / scenecut=40 / intra_refresh=0 / rc=2pass / mbtree=0 / bitrate=2367 / ratetol=1.0 / qcomp=0.60 / qpmin=0 / qpmax=69 / qpstep=4 / cplxblur=20.0 / qblur=0.5 / ip_ratio=1.40 / pb_ratio=1.30 / aq=2:1.00
Default                                  : Yes
Forced                                   : No
Color range                              : Limited
Color primaries                          : BT.709
Transfer characteristics                 : BT.709
Matrix coefficients                      : BT.709

Audio
ID                                       : 2
Format                                   : AC-3
Format/Info                              : Audio Coding 3
Format settings, Endianness              : Big
Codec ID                                 : A_AC3
Duration                                 : 1 h 15 min
Bit rate mode                            : Constant
Bit rate                                 : 384 kb/s
Channel(s)                               : 6 channels
Channel positions                        : Front: L C R, Side: L R, LFE
Sampling rate                            : 48.0 kHz
Frame rate                               : 31.250 FPS (1536 SPF)
Bit depth                                : 16 bits
Compression mode                         : Lossy
Stream size                              : 208 MiB (14%)
Service kind                             : Complete Main
Default                                  : Yes
Forced                                   : No




Скриншоты:
[+] Всего файлов в раздаче - 1:
Elefant.(2019).WEB-DLRip.(AVC).by.Серый1779.Files-x.mkv1.46 GB

Похожие раздачи по запросу - элефант:
2019-11-07 U Элефант (2019) WEB-DLRip от GeneralFilm | iTunes 744.75 MB ↑ 53 ↓ 17
2019-11-07 U Элефант (2019) WEB-DL 720p | iTunes 2.06 GB ↑ 57 ↓ 7
2019-11-06 U Элефант (2019) WEB-DLRip | iTunes 744.23 MB ↑ 70 ↓ 32
2019-11-06 U Элефант (2019) WEB-DLRip-AVC | iTunes 1.46 GB ↑ 122 ↓ 42
2019-11-06 U Элефант (2019) WEB-DL 1080p | iTunes 2.90 GB ↑ 221 ↓ 125

Отзывы
Зарегистрируйтесь чтобы добавить комментарий.
Обратная связь
Copyleft ©