↑↓Torrent.by
Поиск
Логин: Регистрация
Пароль: Восстановить пароль

Игра с огнем / Burn (2019) WEB-DL 1080p от селезень | iTunes

Скачать igra-s-ognem-burn-2019-web-dl-1080p-ot-selezen-itunes.torrent
U Магнитная ссылка Размер: 5.86 GB Раздают: 50 Качают: 40 Добавлен: 2019-11-07 06:41:28
Игра с огнем / Burn (2019) WEB-DL 1080p от селезень | iTunes

Название: Игра с огнем
Оригинальное название: Burn
Год выхода: 2019
Жанр: Триллер
Режиссер: Майк Ган
В ролях: Тильда Кобэм-Херви, Джош Хатчерсон, Сьюки Уотерхаус, Гарри Шам мл., Шайло Фернандес, Джим Девоти, Джон Д. Хикман, Стив Гарфанти, Винтер-Ли Холланд, Уэйн Пайл, Кит Леонард, Анхель Валле мл.

О фильме: История развернется вокруг работницы заправки Мелинды, которая страдает от одиночества и завидует своей более успешной коллеге Шейле. Когда мелкий преступник Билли врывается на заправку в надежде украсть немного наличных, Мелинда видит в этом отличный шанс избавиться от опостылевшей напарницы.

Страна: США
Студия: Yale Productions, Hopscotch Pictures, Particular Crowd
Продолжительность: 01:28:09
Перевод: Дублированный | iTunes

Качество: WEB-DL 1080p
Видео: MPEG-4 AVC, 1920x1040, 8491 Kbit/s, 23.976 fps
Аудио #01: 48 kHz, AC3, 5.1, 384 Kbps | iTunes | RUS |
Аудио #02: 48 kHz, E-AC3, 5.1, 640 Kbps | Оригинал |  ENG |
Субтитры: Русские (Full [Enigma]), английские

Релиз:


[+] MI
General
Unique ID                   : 208936678699576705516264586884630825965 (0x9D2FBD97E296FD30D6B341535AD5CBED)
Complete name               : D:Video111Burn.2019.1080p.AMZN.WEB-DL.1080p.seleZen.mkv
Format                      : Matroska
Format version              : Version 4
File size                   : 5.86 GiB
Duration                    : 1 h 28 min
Overall bit rate            : 9 517 kb/s
Movie name                  : Burn 2019 from селезень
Encoded date                : UTC 2019-11-06 21:20:52
Writing application         : mkvmerge v22.0.0 ('At The End Of The World') 64-bit
Writing library             : libebml v1.3.5 + libmatroska v1.4.8

Video
ID                          : 1
Format                      : AVC
Format/Info                 : Advanced Video Codec
Format profile              : High@L4
Format settings             : CABAC / 4 Ref Frames
Format settings, CABAC      : Yes
Format settings, Reference  : 4 frames
Codec ID                    : V_MPEG4/ISO/AVC
Duration                    : 1 h 28 min
Bit rate mode               : Constant
Bit rate                    : 8 491 kb/s
Nominal bit rate            : 10 000 kb/s
Width                       : 1 920 pixels
Height                      : 1 040 pixels
Display aspect ratio        : 1.85:1
Frame rate mode             : Constant
Frame rate                  : 23.976 (24000/1001) FPS
Color space                 : YUV
Chroma subsampling          : 4:2:0
Bit depth                   : 8 bits
Scan type                   : Progressive
Bits/(Pixel*Frame)          : 0.177
Stream size                 : 5.23 GiB (89%)
Language                    : English
Default                     : Yes
Forced                      : No
Color range                 : Limited
Color primaries             : BT.709
Transfer characteristics    : BT.709
Matrix coefficients         : BT.709

Audio #1
ID                          : 2
Format                      : AC-3
Format/Info                 : Audio Coding 3
Commercial name             : Dolby Digital
Codec ID                    : A_AC3
Duration                    : 1 h 28 min
Bit rate mode               : Constant
Bit rate                    : 384 kb/s
Channel(s)                  : 6 channels
Channel layout              : L R C LFE Ls Rs
Sampling rate               : 48.0 kHz
Frame rate                  : 31.250 FPS (1536 SPF)
Bit depth                   : 16 bits
Compression mode            : Lossy
Stream size                 : 242 MiB (4%)
Title                       : iTunes
Language                    : Russian
Service kind                : Complete Main
Default                     : Yes
Forced                      : Yes

Audio #2
ID                          : 3
Format                      : E-AC-3
Format/Info                 : Enhanced AC-3
Commercial name             : Dolby Digital Plus
Codec ID                    : A_EAC3
Duration                    : 1 h 28 min
Bit rate mode               : Constant
Bit rate                    : 640 kb/s
Channel(s)                  : 6 channels
Channel layout              : L R C LFE Ls Rs
Sampling rate               : 48.0 kHz
Frame rate                  : 31.250 FPS (1536 SPF)
Compression mode            : Lossy
Stream size                 : 404 MiB (7%)
Title                       : Original
Language                    : English
Service kind                : Complete Main
Default                     : No
Forced                      : No

Text #1
ID                          : 4
Format                      : UTF-8
Codec ID                    : S_TEXT/UTF8
Codec ID/Info               : UTF-8 Plain Text
Duration                    : 1 h 20 min
Bit rate                    : 86 b/s
Count of elements           : 1101
Stream size                 : 50.9 KiB (0%)
Title                       : Full [Enigma]
Language                    : Russian
Default                     : No
Forced                      : No

Text #2
ID                          : 5
Format                      : UTF-8
Codec ID                    : S_TEXT/UTF8
Codec ID/Info               : UTF-8 Plain Text
Duration                    : 1 h 20 min
Bit rate                    : 54 b/s
Count of elements           : 1107
Stream size                 : 32.1 KiB (0%)
Title                       : Full
Language                    : English
Default                     : No
Forced                      : No

Text #3
ID                          : 6
Format                      : UTF-8
Codec ID                    : S_TEXT/UTF8
Codec ID/Info               : UTF-8 Plain Text
Duration                    : 1 h 25 min
Bit rate                    : 58 b/s
Count of elements           : 1321
Stream size                 : 36.7 KiB (0%)
Title                       : SDH
Language                    : English
Default                     : No
Forced                      : No



Скриншоты:
[+] Всего файлов в раздаче - 1:
Burn.2019.1080p.AMZN.WEB-DL.1080p.seleZen.mkv5.86 GB

Показать еще раздачи по запросу игра:
2019-11-14 U Игра с огнем / Burn (2019) BDRip 1080p от селезень | iTunes 7.73 GB ↑ 59 ↓ 55
2019-11-14 U Игра с огнем / Burn (2019) BDRip-AVC от ExKinoRay | iTunes 1.68 GB ↑ 76 ↓ 13
2019-11-14 U Игра с огнем / Burn (2019) BDRip от MegaPeer | iTunes 1.42 GB ↑ 155 ↓ 27
2019-11-07 U Игра с огнем / Burn (2019) WEB-DLRip от MegaPeer | iTunes 1.46 GB ↑ 170 ↓ 77
2019-11-07 U Игра Ганнибала / Nomis / Night Hunter (2018) BDRip 720p от селезень | D, P | iTunes 4.04 GB ↑ 70 ↓ 44
2019-11-07 U Игра Ганнибала / Nomis / Night Hunter (2018) BDRip 1080p от селезень | D, P | iTunes 8.17 GB ↑ 53 ↓ 42
2019-11-07 U Игра с огнем / Burn (2019) WEB-DLRip-AVC от ExKinoRay | iTunes 1.56 GB ↑ 74 ↓ 31

Отзывы
Зарегистрируйтесь чтобы добавить комментарий.
Обратная связь
Copyleft ©