↑↓Torrent.by
Поиск
Логин: Регистрация
Пароль: Восстановить пароль

Игра Ганнибала / Nomis / Night Hunter (2018) BDRip 720p от селезень | D, P | iTunes

Скачать igra-gannibala-nomis-night-hunter-2018-bdrip-720p-ot-selezen-d-p-itunes.torrent
U Магнитная ссылка Размер: 4.04 GB Раздают: 70 Качают: 44 Добавлен: 2019-11-07 10:07:47
Игра Ганнибала / Nomis / Night Hunter (2018) BDRip 720p от селезень | D, P | iTunes

Название: Игра Ганнибала
Оригинальное название: Nomis / Night Hunter
Год выхода: 2018
Жанр: Детектив, триллер, криминал
Режиссер: Дэвид Рэймонд
В ролях: Бен Кингсли, Стэнли Туччи, Александра Даддарио, Генри Кавилл, Минка Келли, Натан Филлион, Сара Томпсон, Элиана Джонс, Брендан Флетчер, Эмма Тремблей

О фильме: Выслеживая неуловимого серийного убийцу, виновного в похищении и изнасиловании нескольких девушек, закаленный в боях полицейский Маршалл встречает бывшего судью Купера и юную Лару, которые используют против насильников собственные методы правосудия. Когда Лару похищает разыскиваемый Маршаллом преступник, которым оказывается психически неуравновешенный Саймон, ему удается выследить и арестовать его. Коллега героя Рейчел считает, что в теле подозреваемого уживается сразу несколько личностей, одна из которых затеяла опасную игру с полицейскими. Ее догадка подтверждается после того, как происходит серия новых преступлений, а все улики указывают на находящегося под стражей Саймона…

Страна: Канада, США
Студия: Arcola Entertainment, Arise Pictures, Buffalo Gal Pictures
Продолжительность: 01:38:58
Перевод(ы):
#1: Дублированный | iTunes
#2: Профессиональный многоголосый | HDRezka Studio

Качество: BDRip 720p
Видео: MPEG-4 AVC, 1280x536, 4630 Кbit/s, 23.976 fps
Аудио #01: 48 kHz, AC3, 5.1, 384 Kbps | iTunes | RUS |
Аудио #02: 48 kHz, AC3, 2.0, 192 Kbps | HDRezka Studio | RUS |
Аудио #03: 48 kHz, AC3, 5.1, 640 Kbps | Оригинал |  ENG |
Субтитры: Русские (Forced), английские

Релиз:


[+] MI
General
Unique ID                   : 289913000349880198814495144868425717925 (0xDA1B367E42F4078C0973F586929758A5)
Complete name               : D:Video111Nomis.2018.BDRip.720p.seleZen.mkv
Format                      : Matroska
Format version              : Version 4
File size                   : 4.04 GiB
Duration                    : 1 h 38 min
Overall bit rate            : 5 848 kb/s
Movie name                  : Nomis 2018 from селезень
Encoded date                : UTC 2019-11-06 20:47:13
Writing application         : mkvmerge v22.0.0 ('At The End Of The World') 64-bit
Writing library             : libebml v1.3.5 + libmatroska v1.4.8

Video
ID                          : 1
Format                      : AVC
Format/Info                 : Advanced Video Codec
Format profile              : High@L4.1
Format settings             : CABAC / 12 Ref Frames
Format settings, CABAC      : Yes
Format settings, Reference  : 12 frames
Codec ID                    : V_MPEG4/ISO/AVC
Duration                    : 1 h 38 min
Bit rate                    : 4 630 kb/s
Width                       : 1 280 pixels
Height                      : 536 pixels
Display aspect ratio        : 2.40:1
Frame rate mode             : Constant
Frame rate                  : 23.976 (24000/1001) FPS
Color space                 : YUV
Chroma subsampling          : 4:2:0
Bit depth                   : 8 bits
Scan type                   : Progressive
Bits/(Pixel*Frame)          : 0.281
Stream size                 : 3.20 GiB (79%)
Title                       : DON
Writing library             : x264 core 157 r2970+47 cae74a0 t_mod_New [0-bit@all X86_64]
Encoding settings           : cabac=1 / ref=12 / deblock=1:-3:-3 / analyse=0x3:0x133 / me=umh / subme=10 / psy=1 / fade_compensate=0.00 / psy_rd=1.00:0.00 / mixed_ref=1 / me_range=32 / chroma_me=1 / trellis=2 / 8x8dct=1 / cqm=0 / deadzone=21,11 / fast_pskip=0 / chroma_qp_offset=-2 / threads=24 / lookahead_threads=4 / sliced_threads=0 / nr=0 / decimate=0 / interlaced=0 / bluray_compat=0 / constrained_intra=0 / fgo=0 / bframes=8 / b_pyramid=2 / b_adapt=2 / b_bias=0 / direct=3 / weightb=1 / open_gop=0 / weightp=2 / keyint=250 / keyint_min=23 / scenecut=40 / intra_refresh=0 / rc=crf / mbtree=0 / crf=15.2000 / qcomp=0.60 / qpmin=0:0:0 / qpmax=69:69:69 / qpstep=4 / ip_ratio=1.30 / pb_ratio=1.20 / aq=3:0.80 / aq-sensitivity=10.00 / aq-factor=1.00:1.00:1.00 / aq2=0 / aq3=0 / zones=44424,44603,crf=12.2/44639,44724,crf=12.2/44764,45458,crf=12.2
Language                    : English
Default                     : Yes
Forced                      : No

Audio #1
ID                          : 2
Format                      : AC-3
Format/Info                 : Audio Coding 3
Commercial name             : Dolby Digital
Codec ID                    : A_AC3
Duration                    : 1 h 38 min
Bit rate mode               : Constant
Bit rate                    : 384 kb/s
Channel(s)                  : 6 channels
Channel layout              : L R C LFE Ls Rs
Sampling rate               : 48.0 kHz
Frame rate                  : 31.250 FPS (1536 SPF)
Bit depth                   : 16 bits
Compression mode            : Lossy
Stream size                 : 272 MiB (7%)
Title                       : Dub [iTunes]
Language                    : Russian
Service kind                : Complete Main
Default                     : Yes
Forced                      : Yes

Audio #2
ID                          : 3
Format                      : AC-3
Format/Info                 : Audio Coding 3
Commercial name             : Dolby Digital
Codec ID                    : A_AC3
Duration                    : 1 h 38 min
Bit rate mode               : Constant
Bit rate                    : 192 kb/s
Channel(s)                  : 2 channels
Channel layout              : L R
Sampling rate               : 48.0 kHz
Frame rate                  : 31.250 FPS (1536 SPF)
Bit depth                   : 16 bits
Compression mode            : Lossy
Stream size                 : 136 MiB (3%)
Title                       : MVO [HDRezka Studio]
Language                    : Russian
Service kind                : Complete Main
Default                     : No
Forced                      : No

Audio #3
ID                          : 4
Format                      : AC-3
Format/Info                 : Audio Coding 3
Commercial name             : Dolby Digital
Codec ID                    : A_AC3
Duration                    : 1 h 38 min
Bit rate mode               : Constant
Bit rate                    : 640 kb/s
Channel(s)                  : 6 channels
Channel layout              : L R C LFE Ls Rs
Sampling rate               : 48.0 kHz
Frame rate                  : 31.250 FPS (1536 SPF)
Bit depth                   : 16 bits
Compression mode            : Lossy
Stream size                 : 453 MiB (11%)
Title                       : Original
Language                    : English
Service kind                : Complete Main
Default                     : No
Forced                      : No

Text #1
ID                          : 5
Format                      : UTF-8
Codec ID                    : S_TEXT/UTF8
Codec ID/Info               : UTF-8 Plain Text
Duration                    : 1 h 1 min
Bit rate                    : 1 b/s
Count of elements           : 12
Stream size                 : 490 Bytes (0%)
Title                       : Forced
Language                    : Russian
Default                     : Yes
Forced                      : Yes

Text #2
ID                          : 6
Format                      : UTF-8
Codec ID                    : S_TEXT/UTF8
Codec ID/Info               : UTF-8 Plain Text
Duration                    : 1 h 32 min
Bit rate                    : 43 b/s
Count of elements           : 1100
Stream size                 : 29.4 KiB (0%)
Language                    : English
Default                     : No
Forced                      : No

Menu
00:00:00.000                : :Chapter 01
00:13:20.299                : :Chapter 02
00:25:10.884                : :Chapter 03
00:40:01.107                : :Chapter 04
00:53:13.315                : :Chapter 05
01:08:14.507                : :Chapter 06
01:23:00.142                : :Chapter 07
01:33:35.652                : :Chapter 08



Скриншоты:
[+] Всего файлов в раздаче - 1:
Nomis.2018.BDRip.720p.seleZen.mkv4.04 GB

Показать еще раздачи по запросу игра:
2019-11-14 U Игра с огнем / Burn (2019) BDRip 1080p от селезень | iTunes 7.73 GB ↑ 59 ↓ 55
2019-11-14 U Игра с огнем / Burn (2019) BDRip-AVC от ExKinoRay | iTunes 1.68 GB ↑ 76 ↓ 13
2019-11-14 U Игра с огнем / Burn (2019) BDRip от MegaPeer | iTunes 1.42 GB ↑ 155 ↓ 27
2019-11-07 U Игра с огнем / Burn (2019) WEB-DLRip от MegaPeer | iTunes 1.46 GB ↑ 170 ↓ 77
2019-11-07 U Игра Ганнибала / Nomis / Night Hunter (2018) BDRip 1080p от селезень | D, P | iTunes 8.17 GB ↑ 53 ↓ 42
2019-11-07 U Игра с огнем / Burn (2019) WEB-DL 1080p от селезень | iTunes 5.86 GB ↑ 50 ↓ 40
2019-11-07 U Игра с огнем / Burn (2019) WEB-DLRip-AVC от ExKinoRay | iTunes 1.56 GB ↑ 74 ↓ 31

Отзывы
Зарегистрируйтесь чтобы добавить комментарий.
Обратная связь
Copyleft ©