↑↓Torrent.by
Поиск
Логин: Регистрация
Пароль: Восстановить пароль

Ибица / Ibiza (2019) WEB-DL 1080p | iTunes

Скачать ibica-ibiza-2019-web-dl-1080p-itunes.torrent
U Магнитная ссылка Размер: 3.05 GB Раздают: 137 Качают: 99 Добавлен: 2019-11-07 15:18:46
Ибица / Ibiza (2019) WEB-DL 1080p | iTunes

Название: Ибица
Оригинальное название: Ibiza
Год выхода: 2019
Жанр:  Комедия
Режиссер: Арно Лемор
В ролях: Кристиан Клавье, Матильда Сенье, Леопольд Бухсбаум, Пили Груан, Джои Старр, Оливье Маршаль, Фредерик Бель, Луи-До де Ланкесэ, Lola Aubrière, Marie de Dinechin

О фильме:
Консервативный доктор-ортопед Филипп пытается расположить к себе двух детей-подростков своей новой возлюбленной. Он решает провести вместе с ними семейный отпуск у моря, и молодежь выбирает Ибицу, где любителю тихого отдыха придется непросто.

Страна: Франция, Бельгия / Atelier de Production, Gaumont, France 2 Cinéma
Продолжительность: 01:26:03
Перевод: Дублированный (iTunes)

Файл
Формат: MKV
Качество: WEB-DL 1080p
Видео: AVC/H.264, 1920x804, 24.00 fps, ~4688 Kbps
Аудио: AC3, 6 ch, 384 Kbps
Субтитры: Нет


[+] M/I
Общее
Уникальный идентификатор                 : 190468968307488580367855134857287009510 (0x8F4AFD2C16C39E67B4F03467B68184E6)
Полное имя                               : D:NNMИбицаIbiza.2019.WEB.DL.1080p-LQ.mkv
Формат                                   : Matroska
Версия формата                           : Version 4
Размер файла                             : 3,05 Гбайт
Продолжительность                        : 1 ч. 26 м.
Общий поток                              : 5073 Кбит/сек
Дата кодирования                         : UTC 2019-11-06 10:05:11
Программа кодирования                    : mkvmerge v8.3.0 ('Over the Horizon') 64bit
Библиотека кодирования                   : libebml v1.3.1 + libmatroska v1.4.2

Видео
Идентификатор                            : 1
Формат                                   : AVC
Формат/Информация                        : Advanced Video Codec
Профиль формата                          : High@L4
Настройки формата                        : CABAC / 5 Ref Frames
Параметр CABAC формата                   : Да
Параметр RefFrames формата               : 5 кадров
Параметр GOP формата                     : N=1
Идентификатор кодека                     : V_MPEG4/ISO/AVC
Продолжительность                        : 1 ч. 26 м.
Битрейт                                  : 4688 Кбит/сек
Ширина                                   : 1920 пикселей
Высота                                   : 804 пикселя
Соотношение сторон                       : 2,40:1
Режим частоты кадров                     : Постоянный
Частота кадров                           : 24,000 кадра/сек
Цветовое пространство                    : YUV
Субдискретизация насыщенности            : 4:2:0
Битовая глубина                          : 8 бит
Тип развёртки                            : Прогрессивная
Бит/(Пиксели*Кадры)                      : 0.127
Размер потока                            : 2,82 Гбайт (92%)
Язык                                     : English
Default                                  : Да
Forced                                   : Нет
Цветовой диапазон                        : Limited
Основные цвета                           : BT.709
Характеристики трансфера                 : BT.709
Коэффициенты матрицы                     : BT.709

Аудио
Идентификатор                            : 2
Формат                                   : AC-3
Формат/Информация                        : Audio Coding 3
Коммерческое название                    : Dolby Digital
Идентификатор кодека                     : A_AC3
Продолжительность                        : 1 ч. 26 м.
Вид битрейта                             : Постоянный
Битрейт                                  : 384 Кбит/сек
Каналы                                   : 6 каналов
ChannelLayout                            : L R C LFE Ls Rs
Частота                                  : 48,0 КГц
Частота кадров                           : 31,250 кадров/сек (1536 SPF)
Битовая глубина                          : 16 бит
Метод сжатия                             : С потерями
Размер потока                            : 236 Мбайт (8%)
Заголовок                                : iTunes
Язык                                     : Russian
ServiceKind                       : Complete Main
Default                                  : Да
Forced                                   : Нет

Меню
00:00:00.000                             : en:Глава 1
00:07:25.583                             : en:Глава 2
00:15:43.499                             : en:Глава 3
00:23:25.414                             : en:Глава 4
00:30:25.454                             : en:Глава 5
00:37:36.579                             : en:Глава 6
00:44:49.537                             : en:Глава 7
00:51:29.745                             : en:Глава 8
00:58:36.370                             : en:Глава 9
01:04:48.870                             : en:Глава 10
01:12:46.786                             : en:Глава 11
01:17:40.661                             : en:Глава 12



Скриншоты:
[+] Всего файлов в раздаче - 1:
Ibiza.2019.WEB.DL.1080p-LQ.mkv3.05 GB

Похожие раздачи по запросу - ибица:
2019-11-13 U Ибица / Ibiza (2019) WEB-DLRip-AVC | iTunes 1.54 GB ↑ 44 ↓ 14
2019-11-08 U Ибица / Ibiza (2019) WEB-DLRip | iTunes 1.36 GB ↑ 70 ↓ 28
2019-11-07 U Ибица / Ibiza (2019) WEB-DLRip | iTunes 1.46 GB ↑ 187 ↓ 103

Отзывы
Зарегистрируйтесь чтобы добавить комментарий.
Обратная связь
Copyleft ©