↑↓Torrent.by
Поиск
Логин: Регистрация
Пароль: Восстановить пароль

Закат американской империи / Le déclin de l'empire américain (1986) BDRip 720p | P, P2, A

Скачать zakat-amerikanskoy-imperii-le-d-clin-de-l-empire-am-ricain-1986-bdrip-720p-p-p2-a.torrent
U Магнитная ссылка Размер: 6.28 GB Раздают: 5 Качают: 3 Добавлен: 2019-11-07 16:23:10

Информация о фильме
Название: Закат американской империи
Оригинальное название: Le déclin de l'empire américain
Год выхода: 1986
Жанр: Драма, комедия
Режиссер: Дени Аркан
В ролях: Доминик Мишель, Доротея Берриман, Луиза Порталь, Пьер Курци, Реми Жирар, Ив Жак, Женевьева Риу, Даниэль Бриер, Габриэль Аркан, Эвелин Рекимбальд

О фильме:
Канадские интеллектуалы средних лет, университетские профессора, готовятся к вечеринке и — разговаривают. Мужчины — до поры — отдельно, женщины отдельно. Потом, объединившись за столом, они продолжают дискуссии — все о том же, о сексе.



Страна: Канада
Студия: Cineplex-Odeon Films, Corporation Image M & M, L'Office National du Film du Canada
Продолжительность: 01:41:34
Перевод: Многоголосый закадровый, Двухголосый закадровый, Авторский (одноголосый)
Субтитры: Русские, английские

Релиз от: NNMClub
Качество: BDRip 720p
Видео: AVC/H.264, 1280x720, (16:9), 7000 Kbps, 23.976 fps
Аудио 1: AC3, 6 ch, 640 Kbps - Русский (MVO - Cinema Prestige)
Аудио 2: AC3, 2 ch, 192 Kbps - Русский (DVO - НТВ)
Аудио 3: AC3, 2 ch, 192 Kbps - Русский (AVO - Р. Янкелевич)
Аудио 4: AC3, 6 ch, 640 Kbps - Французский (Оригинал)
Аудио 5: AC3, 2 ch, 192 Kbps - Английский (Дубляж)

[+] MediaInfo:
General
Unique ID : 93636694551034239727619018625727893062 (0x4671C57A01C5404978166F6C7E388E46)
Complete name : D:Le.Declin.De.l.Empire.Americain.1986.BDRip.720p.NNMClub.mkv
Format : Matroska
Format version : Version 4
File size : 6.28 GiB
Duration : 1 h 41 min
Overall bit rate : 8 859 kb/s
Movie name : Le déclin de l'empire américain / The Decline of the American Empire (1986) | NNMClub
Encoded date : UTC 2019-11-07 09:02:08
Writing application : mkvmerge v39.0.0 ('In The Waiting Line') 64-bit
Writing library : libebml v1.3.9 + libmatroska v1.5.2
Cover : Yes
Attachments : Cover.jpg / x264.log

Video
ID : 1
Format : AVC
Format/Info : Advanced Video Codec
Format profile : High@L4.1
Format settings : CABAC / 9 Ref Frames
Format settings, CABAC : Yes
Format settings, Reference : 9 frames
Codec ID : V_MPEG4/ISO/AVC
Duration : 1 h 41 min
Bit rate : 7 000 kb/s
Width : 1 280 pixels
Height : 720 pixels
Display aspect ratio : 16:9
Frame rate mode : Constant
Frame rate : 23.976 (24000/1001) FPS
Color space : YUV
Chroma subsampling : 4:2:0
Bit depth : 8 bits
Scan type : Progressive
Bits/(Pixel*Frame) : 0.317
Stream size : 4.97 GiB (79%)
Title : Le déclin de l'empire américain / The Decline of the American Empire (1986)
Writing library : x264 core 158 r2984 3759fcb
Encoding settings : cabac=1 / ref=9 / deblock=1:-2:-2 / analyse=0x3:0x133 / me=esa / subme=11 / psy=1 / psy_rd=1.00:0.15 / mixed_ref=1 / me_range=32 / chroma_me=1 / trellis=2 / 8x8dct=1 / cqm=0 / deadzone=21,11 / fast_pskip=0 / chroma_qp_offset=-3 / threads=12 / lookahead_threads=2 / sliced_threads=0 / nr=0 / decimate=0 / interlaced=0 / bluray_compat=0 / constrained_intra=0 / bframes=9 / b_pyramid=2 / b_adapt=2 / b_bias=0 / direct=3 / weightb=1 / open_gop=0 / weightp=2 / keyint=240 / keyint_min=23 / scenecut=40 / intra_refresh=0 / rc_lookahead=60 / rc=2pass / mbtree=0 / bitrate=7000 / ratetol=1.0 / qcomp=0.60 / qpmin=0 / qpmax=69 / qpstep=4 / cplxblur=20.0 / qblur=0.5 / vbv_maxrate=50000 / vbv_bufsize=62500 / nal_hrd=none / filler=0 / ip_ratio=1.40 / pb_ratio=1.30 / aq=3:0.80
Language : English
Default : Yes
Forced : No

Audio #1
ID : 2
Format : AC-3
Format/Info : Audio Coding 3
Commercial name : Dolby Digital
Codec ID : A_AC3
Duration : 1 h 41 min
Bit rate mode : Constant
Bit rate : 640 kb/s
Channel(s) : 6 channels
Channel layout : L R C LFE Ls Rs
Sampling rate : 48.0 kHz
Frame rate : 31.250 FPS (1536 SPF)
Compression mode : Lossy
Stream size : 465 MiB (7%)
Title : MVO | Cinema Prestige
Language : Russian
Service kind : Complete Main
Default : Yes
Forced : No

Audio #2
ID : 3
Format : AC-3
Format/Info : Audio Coding 3
Commercial name : Dolby Digital
Codec ID : A_AC3
Duration : 1 h 41 min
Bit rate mode : Constant
Bit rate : 192 kb/s
Channel(s) : 2 channels
Channel layout : L R
Sampling rate : 48.0 kHz
Frame rate : 31.250 FPS (1536 SPF)
Compression mode : Lossy
Stream size : 139 MiB (2%)
Title : DVO | НТВ
Language : Russian
Service kind : Complete Main
Default : No
Forced : No

Audio #3
ID : 4
Format : AC-3
Format/Info : Audio Coding 3
Commercial name : Dolby Digital
Codec ID : A_AC3
Duration : 1 h 41 min
Bit rate mode : Constant
Bit rate : 192 kb/s
Channel(s) : 2 channels
Channel layout : L R
Sampling rate : 48.0 kHz
Frame rate : 31.250 FPS (1536 SPF)
Compression mode : Lossy
Stream size : 139 MiB (2%)
Title : AVO | Р. Янкелевич
Language : Russian
Service kind : Complete Main
Default : No
Forced : No

Audio #4
ID : 5
Format : AC-3
Format/Info : Audio Coding 3
Commercial name : Dolby Digital
Codec ID : A_AC3
Duration : 1 h 41 min
Bit rate mode : Constant
Bit rate : 640 kb/s
Channel(s) : 6 channels
Channel layout : L R C LFE Ls Rs
Sampling rate : 48.0 kHz
Frame rate : 31.250 FPS (1536 SPF)
Compression mode : Lossy
Stream size : 465 MiB (7%)
Title : Original
Language : French
Service kind : Complete Main
Default : No
Forced : No

Audio #5
ID : 6
Format : AC-3
Format/Info : Audio Coding 3
Commercial name : Dolby Digital
Codec ID : A_AC3
Duration : 1 h 41 min
Bit rate mode : Constant
Bit rate : 192 kb/s
Channel(s) : 2 channels
Channel layout : L R
Sampling rate : 48.0 kHz
Frame rate : 31.250 FPS (1536 SPF)
Compression mode : Lossy
Stream size : 139 MiB (2%)
Title : DUB
Language : English
Service kind : Complete Main
Default : No
Forced : No

Text #1
ID : 7
Format : UTF-8
Codec ID : S_TEXT/UTF8
Codec ID/Info : UTF-8 Plain Text
Duration : 1 h 38 min
Bit rate : 105 b/s
Count of elements : 1532
Stream size : 76.3 KiB (0%)
Title : Full
Language : Russian
Default : No
Forced : No

Text #2
ID : 8
Format : UTF-8
Codec ID : S_TEXT/UTF8
Codec ID/Info : UTF-8 Plain Text
Duration : 1 h 38 min
Bit rate : 56 b/s
Count of elements : 1516
Stream size : 41.1 KiB (0%)
Title : Full
Language : English
Default : No
Forced : No

Menu
00:00:00.000 : 00:00:00.000
00:06:33.852 : 00:06:33.852
00:12:49.769 : 00:12:49.769
00:18:59.763 : 00:18:59.763
00:26:19.578 : 00:26:19.578
00:32:00.585 : 00:32:00.585
00:37:06.306 : 00:37:06.306
00:45:01.364 : 00:45:01.364
00:54:02.239 : 00:54:02.239
00:59:26.396 : 00:59:26.396
01:04:08.428 : 01:04:08.428
01:11:44.675 : 01:11:44.675
01:16:56.737 : 01:16:56.737
01:25:02.055 : 01:25:02.055
01:31:53.550 : 01:31:53.550
01:39:01.561 : 01:39:01.561



[+] x264 log:
x264 [info]: profile High, level 4.1, 4:2:0, 8-bit
x264 [info]: frame I:914 Avg QP:14.82 size:144777
x264 [info]: frame P:28237 Avg QP:17.32 size: 73966
x264 [info]: frame B:116962 Avg QP:19.15 size: 26598
x264 [info]: consecutive B-frames: 0.9% 0.8% 4.7% 13.8% 13.6% 61.2% 4.0% 0.5% 0.3% 0.2%
x264 [info]: mb I I16..4: 8.3% 70.4% 21.3%
x264 [info]: mb P I16..4: 0.7% 26.7% 2.1% P16..4: 20.8% 30.0% 16.2% 3.2% 0.2% skip: 0.2%
x264 [info]: mb B I16..4: 0.0% 2.6% 0.1% B16..8: 33.1% 28.2% 6.3% direct:11.4% skip:18.3% L0:40.1% L1:36.8% BI:23.1%
x264 [info]: 8x8 transform intra:90.2% inter:46.6%
x264 [info]: direct mvs spatial:99.6% temporal:0.4%
x264 [info]: coded y,uvDC,uvAC intra: 99.0% 92.8% 76.2% inter: 46.1% 36.2% 11.0%
x264 [info]: i16 v,h,dc,p: 17% 4% 19% 60%
x264 [info]: i8 v,h,dc,ddl,ddr,vr,hd,vl,hu: 11% 10% 12% 9% 12% 11% 11% 11% 13%
x264 [info]: i4 v,h,dc,ddl,ddr,vr,hd,vl,hu: 10% 7% 3% 9% 16% 15% 14% 12% 13%
x264 [info]: i8c dc,h,v,p: 45% 22% 19% 15%
x264 [info]: Weighted P-Frames: Y:6.9% UV:3.1%
x264 [info]: ref P L0: 42.6% 8.2% 18.1% 9.2% 7.0% 5.4% 4.4% 2.8% 2.1% 0.1% 0.0%
x264 [info]: ref B L0: 84.3% 7.7% 3.2% 1.8% 1.2% 0.9% 0.6% 0.3%
x264 [info]: ref B L1: 98.2% 1.8%
x264 [info]: kb/s:6999.41



[+] Скриншоты

[+] Всего файлов в раздаче - 1:
Le.Declin.De.l.Empire.Americain.1986.BDRip.720p.NNMClub.mkv6.28 GB

Отзывы
Зарегистрируйтесь чтобы добавить комментарий.
Обратная связь
Copyleft ©