↑↓Torrent.by
Поиск
Логин: Регистрация
Пароль: Восстановить пароль

Свидание на млечном пути (1985) SATRip от New-Team

Скачать svidanie-na-mlechnom-puti-1985-satrip-ot-new-team.torrent
U Магнитная ссылка Размер: 745.38 MB Раздают: 0 Качают: 3 Добавлен: 2019-11-07 17:41:50

Страна: СССР
Производство: Рижская киностудия

Жанр: драма, военный
Год выпуска: 1985
Продолжительность: 01:25:38

Перевод: Не требуется
Cубтитры: нет
Оригинальная аудиодорожка: русский

Режиссер: Янис Стрейч

В ролях:
Инара Слуцка, Нина Ильина, Елена Скороходова, Елена Казаринова, Наталья Заболотная, Анатолий Лукьяненко, Игорь Чернявский, Бесарион (Бесо) Хидешели, Манана Цховребова...
Полный список актёров

Описание:
Военная переводчица Астра Леиня получает разрешение служить в той же дивизии, в которой воюет ее жених. И теперь, подвергаясь смертельной опасности, пешком и на попутных машинах, она пробирается вдоль линии фронта и становится свидетельницей драматических событий войны и возрождающегося мира.



Источник: DVB
Качество видео: SATRip
Формат видео: AVI

Видео: 688x304 (2,25:1), 25 fps, XviD ~ 1015 kbps avg, 0.194 bit/pixel
Аудио: 48 kHz, Dolby Digital AC3 2.0, 192 kbps

Раздача от:
[+] MediaInfo
Общее
Полное имя : Svidanie.na.Mlechnom puti.1985.SATRip_[New-team]_by_AVP_Studio.avi
Формат : AVI
Формат/Информация : Audio Video Interleave
Размер файла : 745 Мбайт
Продолжительность : 1 ч. 25 м.
Общий поток : 1217 Кбит/сек
Программа кодирования : VirtualDubMod 1.5.10.3 | www.virtualdub-fr.org || (build 2550/release)
Библиотека кодирования : VirtualDubMod build 2550/release

Видео
Идентификатор : 0
Формат : MPEG-4 Visual
Профиль формата : Advanced Simple@L5
Параметр BVOP формата : 1
Параметр QPel формата : Нет
Параметр GMC формата : Без точки перехода
Параметр матрицы формата : Выборочная
Идентификатор кодека : XVID
Идентификатор кодека/Подсказка : XviD
Продолжительность : 1 ч. 25 м.
Битрейт : 1015 Кбит/сек
Ширина : 688 пикселей
Высота : 304 пикселя
Соотношение сторон : 2,25:1
Частота кадров : 25,000 кадров/сек
Цветовое пространство : YUV
Субдискретизация насыщенности : 4:2:0
Битовая глубина : 8 бит
Тип развёртки : Прогрессивная
Метод сжатия : С потерями
Бит/(Пиксели*Кадры) : 0.194
Размер потока : 622 Мбайт (83%)
Библиотека кодирования : XviD 73

Аудио
Идентификатор : 1
Формат : AC-3
Формат/Информация : Audio Coding 3
Расширение режима : CM (complete main)
Параметр Endianness формата : Big
Идентификатор кодека : 2000
Продолжительность : 1 ч. 25 м.
Вид битрейта : Постоянный
Битрейт : 192 Кбит/сек
Каналы : 2 канала
Расположение каналов : Front: L R
Частота : 48,0 КГц
Метод сжатия : С потерями
Размер потока : 118 Мбайт (16%)
Выравнивание : Разделение по промежуткам
Продолжительность промежутка : 40 мс. (1,00 видеокадр)
Время предзагрузки промежутка : 500 мс


Скриншоты
[+] Всего файлов в раздаче - 1:
Svidanie.na.Mlechnom puti.1985.SATRip_[New-team]_by_AVP_Studio.avi745.38 MB

Похожие раздачи по запросу - свидание:
2013-10-10 U Дом: История путешествия. Свидание с планетой / Home (2009) BDRip 1080p | Режиссерская версия 10.31 GB ↑ 510 ↓ 11

Отзывы
Зарегистрируйтесь чтобы добавить комментарий.
Обратная связь
Copyleft ©