↑↓Torrent.by
Поиск
Логин: Регистрация
Пароль: Восстановить пароль

Полярный [01-08 из 16] (2019) HDTV 1080i от ExKinoRay

Скачать polyarnyy-01-08-iz-16-2019-hdtv-1080i-ot-exkinoray.torrent
U Магнитная ссылка Размер: 7.49 GB Раздают: 60 Качают: 142 Добавлен: 2019-11-08 06:19:09
Полярный [01-08 из 16] (2019) HDTV 1080i от  ExKinoRay

Оригинальное название: Полярный
Год выхода: 2019
Жанр: Комедия
Режиссер: Константин Статский, Михаил Старчак
В ролях: Михаил Пореченков, Иван Охлобыстин, Владимир Епифанцев, Катерина Шпица, Игорь Жижикин, Ян Цапник, Филипп Дьячков (II), Светлана Листова, Карина Зверева, Виктор Бычков, Александр Баширов, Сергей Чирков, Вера Строкова, Игорь Филиппов, Юрий Тузов, Александр Потапов (III), Юрий Назаров, Антон Богданов, Сергей Черданцев, Александр Мосолов (I)

О фильме:
Эта история о Викторе Громове, бывшем бандите по кличке Витя Мясник. В середине 90-х одно его имя заставляло московских коммерсантов хвататься за сердце, а конкурентов по опасному бизнесу – за стволы. Но со временем Витя отошел от дел и переехал за город, подальше от столичных пробок и бесконечной погони за призрачным счастьем. Эта идиллия нарушается неожиданным визитом бывших подельников Вити во главе с авторитетом по имени Артур, в свое время возглавлявшим их преступную группировку. Артур рассказывает о сильном прессе со стороны правоохранительных органов и просит Витю передержать на его оффшорном банковском счете воровской общак. Витя совсем не в восторге от этой перспективы, но не в праве отказать Артуру, так как обязан ему тем, что не сел в тюрьму в начале 2000-х. Витя кладет общак на свой банковский счет и по настойчивой просьбе Артура ставит на счет пароль, который знает только он один. Спустя несколько месяцев Витя получает долгожданный звонок от Артура. Шумиха улеглась. Деньги можно возвращать. Но именно в этот момент прямо на голову Вити падает огромная подкова, висевшая при входе на ферму. После того, как Витя приходит в себя, он понимает, что окончательно и бесповоротно забыл пароль от банковского счета. Он понимает, что ему никто не поверит, и по этой причине пытается сбежать. Спустя несколько дней пути в почтовом вагоне Витя сходит на станции под названием «Полярный»…

Страна: Россия
Студия: ТНТ-PREMIER Studios
Продолжительность: 8 x  ~ 00:25:00
Перевод: Не требуется

Файл
Кодек: MPEG-4 AVC
Качество: HDTV 1080i
Видео: 1920х1080 (16:9), 25 fps, AVC MPEG-4 (x264), High@L4.0 ~ 5500 kbps , 0.106 bit/pixel
Звук: 48 kHz, MPEG Layer 2, 2 ch, ~ 192 kbps avg

Релиз:


[+] MediaInfo

Общее
Идентификатор                            : 1 (0x1)
Полное имя                               : G:Poliarniy.2019.HDTV.(1080i).ExKinoRayPoliarniy.E01.2019.HDTV.(1080i).ExKinoRay.ts
Формат                                   : MPEG-TS
Размер файла                             : 1,00 Гбайт
Продолжительность                        : 24 м. 1 с.
Режим общего битрейта                    : Переменный
Общий поток                              : 5987 Кбит/сек

Видео
Идентификатор                            : 211 (0xD3)
Идентификатор меню                       : 2207 (0x89F)
Формат                                   : AVC
Формат/Информация                        : Advanced Video Codec
Профиль формата                          : High@L4
Настройки формата                        : CABAC / 4 Ref Frames
Параметр CABAC формата                   : Да
Параметр RefFrames формата               : 4 кадра
Идентификатор кодека                     : 27
Продолжительность                        : 24 м. 1 с.
Битрейт                                  : 5497 Кбит/сек
Ширина                                   : 1920 пикселей
Высота                                   : 1080 пикселей
Соотношение сторон                       : 16:9
Частота кадров                           : 25,000 кадров/сек
Стандарт вещания                         : Component
Цветовое пространство                    : YUV
Субдискретизация насыщенности            : 4:2:0
Битовая глубина                          : 8 бит
Тип развёртки                            : Чересстрочная
Метод сохранения типа развёртки          : Раздельные поля
Порядок развёртки                        : Верхнее поле первое
Бит/(Пиксели*Кадры)                      : 0.106
Размер потока                            : 945 Мбайт (92%)
Цветовой диапазон                        : Limited
Основные цвета                           : BT.709
Характеристики трансфера                 : BT.709
Коэффициенты матрицы                     : BT.709

Аудио
Идентификатор                            : 221 (0xDD)
Идентификатор меню                       : 2207 (0x89F)
Формат                                   : MPEG Audio
Версия формата                           : Version 1
Профиль формата                          : Layer 2
Идентификатор кодека                     : 3
Продолжительность                        : 24 м. 1 с.
Вид битрейта                             : Постоянный
Битрейт                                  : 192 Кбит/сек
Каналы                                   : 2 канала
Частота                                  : 48,0 КГц
Частота кадров                           : 41,667 кадра/сек (1152 SPF)
Метод сжатия                             : С потерями
Размер потока                            : 33,0 Мбайт (3%)
Язык                                     : Russian



Скриншоты:
[+] Всего файлов в раздаче - 8:
Poliarniy.E01.2019.HDTV.(1080i).ExKinoRay.ts1.00 GB
Poliarniy.E02.2019.HDTV.(1080i).ExKinoRay.ts1.00 GB
Poliarniy.E03.2019.HDTV.(1080i).ExKinoRay.ts1.04 GB
Poliarniy.E04.2019.HDTV.(1080i).ExKinoRay.ts810.30 MB
Poliarniy.E05.2019.HDTV.(1080i).ExKinoRay.ts844.96 MB
Poliarniy.E06.2019.HDTV.(1080i).ExKinoRay.ts1,018.16 MB
Poliarniy.E07.2019.HDTV.(1080i).ExKinoRay.ts808.85 MB
Poliarniy.E08.2019.HDTV.(1080i).ExKinoRay.ts1.04 GB

Показать еще раздачи по запросу полярный:
Сегодня U Полярный [01-09 из 16] (2019) SATRip 2.72 GB ↑ 752 ↓ 1243
2019-11-09 U Полярный [01-07 из 16] (2019) WEB-DL 720p от ExKinoRay 3.78 GB ↑ 46 ↓ 81
2019-11-08 U Полярный [01-08 из 16] (2019) HDTVRip от Files-x 2.60 GB ↑ 126 ↓ 273
2019-11-08 U Полярный [01-08 из 16] (2019) HDTV 1080p от GeneralFilm 7.60 GB ↑ 100 ↓ 235
2019-11-08 U Полярный [01-08 из 16] (2019) HDTVRip от GeneralFilm 2.18 GB ↑ 86 ↓ 194
2019-11-08 U Полярный [01-08 из 16] (2019) SATRip 2.40 GB ↑ 379 ↓ 1206
2019-11-08 U Полярный [01-08 из 16] (2019) HDTVRip-AVC от Files-x 2.73 GB ↑ 66 ↓ 290

Отзывы
Зарегистрируйтесь чтобы добавить комментарий.
Обратная связь
Copyleft ©