↑↓Torrent.by
Поиск
Логин: Регистрация
Пароль: Восстановить пароль

СеняФедя [S03] (2019) SATRip от Files-x

Скачать senyafedya-s03-2019-satrip-ot-files-x.torrent
U Магнитная ссылка Размер: 4.97 GB Раздают: 60 Качают: 114 Добавлен: 2019-11-08 06:19:15
СеняФедя [S03] (2019) SATRip от Files-x

Оригинальное название: #СеняФедя
Год выхода: 2019
Жанр: Комедия
Режиссер: Юрий Владовский
В ролях: Сергей Лавыгин, Михаил Тарабукин, Дмитрий Нагиев, Анна Бегунова, Ирина Серова, Юлия Сулес

О фильме:
По сюжету Максим Галкин отказывается вести корпоратив компании Марины (Анна Бегунова), поэтому жена Сени (Сергей Лавыгин) срочно ищет новую кандидатуру. Федя (Михаил Тарабукин) обещает договориться с бывшим боссом Дмитрием Нагиевым, но тот не берёт трубку. Чтобы спасти корпоратив и Марину от увольнения, друзья решают найти двойника шоумена. Казалось бы, план отличный, только на празднике появляется друг Нагиева, который узнаёт о подмене и рассказывает о махинациях самому актёру.

Страна: Россия
Студия: PICK UP FILM по заказу телеканала СТС, Кинокомпания "Сок"
Продолжительность: 17 х 00:25:00
Перевод: Не требуется

Файл
Кодек: XviD
Качество: SATRip
Видео: XviD, ~ 1516 Кбит/с, 720x400, 25 кадр/с
Звук: AC3, 2 ch, 192 Кбит/с

Релиз:


[+] MediaInfo

General
Complete name: C:24.#СеняФедя.s03.E01.(2019).SATRip.by.Nicodem.Files-x.avi
Format: AVI
Format/Info: Audio Video Interleave
File size: 299 MiB
Duration: 24mn 22s
Overall bit rate: 1 718 Kbps
Writing application: VirtualDubMod 1.5.10.3 | www.virtualdub-fr.org || (build 2550/release)
Writing library: VirtualDubMod build 2550/release

Video
ID: 0
Format: MPEG-4 Visual
Format profile: Advanced Simple@L5
Format settings, BVOP: 1
Format settings, QPel: No
Format settings, GMC: No warppoints
Format settings, Matrix: Custom
Codec ID: XVID
Codec ID/Hint: XviD
Duration: 24mn 22s
Bit rate: 1 516 Kbps
Width: 720 pixels
Height: 400 pixels
Display aspect ratio: 16:9
Frame rate: 25.000 fps
Color space: YUV
Chroma subsampling: 4:2:0
Bit depth: 8 bits
Scan type: Progressive
Compression mode: Lossy
Bits/(Pixel*Frame): 0.211
Stream size: 264 MiB (88%)
Writing library: XviD 73

Audio
ID: 1
Format: AC-3
Format/Info: Audio Coding 3
Mode extension: CM (complete main)
Codec ID: 2000
Duration: 24mn 22s
Bit rate mode: Constant
Bit rate: 192 Kbps
Channel(s): 2 channels
Channel positions: Front: L R
Sampling rate: 48.0 KHz
Bit depth: 16 bits
Compression mode: Lossy
Stream size: 33.5 MiB (11%)
Alignment: Split accross interleaves
Interleave, duration: 40 ms (1.00 video frame)
Interleave, preload duration: 500 ms



Скриншоты:
[+] Всего файлов в раздаче - 17:
30.СеняФедя.s03.E07.(2019).SATRip.by.Nicodem.Files-x.avi298.96 MB
31.СеняФедя.s03.E08.(2019).SATRip.by.Nicodem.Files-x.avi298.98 MB
28.СеняФедя.s03.E05.(2019).SATRip.by.Nicodem.Files-x.avi298.98 MB
29.СеняФедя.s03.E06.(2019).SATRip.by.Nicodem.Files-x.avi299.01 MB
26.СеняФедя.s03.E03.(2019).SATRip.by.Nicodem.Files-x.avi299.02 MB
38.СеняФедя.s03.E15.(2019).SATRip.by.Nicodem.Files-x.avi299.03 MB
39.СеняФедя.s03.E16.(2019).SATRip.by.Nicodem.Files-x.avi299.04 MB
36.СеняФедя.s03.E13.(2019).SATRip.by.Nicodem.Files-x.avi299.05 MB
34.СеняФедя.s03.E11.(2019).SATRip.by.Nicodem.Files-x.avi299.06 MB
27.СеняФедя.s03.E04.(2019).SATRip.by.Nicodem.Files-x.avi299.09 MB
33.СеняФедя.s03.E10.(2019).SATRip.by.Nicodem.Files-x.avi299.10 MB
35.СеняФедя.s03.E12.(2019).SATRip.by.Nicodem.Files-x.avi299.11 MB
37.СеняФедя.s03.E14.(2019).SATRip.by.Nicodem.Files-x.avi299.12 MB
40.СеняФедя.s03.E17.(2019).SATRip.by.Nicodem.Files-x.avi299.13 MB
32.СеняФедя.s03.E09.(2019).SATRip.by.Nicodem.Files-x.avi299.13 MB
24.СеняФедя.s03.E01.(2019).SATRip.by.Nicodem.Files-x.avi299.46 MB
25.СеняФедя.s03.E02.(2019).SATRip.by.Nicodem.Files-x.avi299.61 MB

Показать еще раздачи по запросу сеняфедя:
2019-11-07 U СеняФедя [03х01-16] (2019) SATRip от Files-x 4.67 GB ↑ 71 ↓ 124
2019-10-31 U СеняФедя [03х01-14] (2019) SATRip от Files-x 4.09 GB ↑ 98 ↓ 250
2019-10-31 U СеняФедя [03х01-13] (2019) SATRip от Files-x 3.80 GB ↑ 74 ↓ 137
2019-10-29 U СеняФедя [03х01-12] (2019) SATRip от Files-x 3.51 GB ↑ 95 ↓ 330
2019-10-25 U СеняФедя [03х01-11] (2019) SATRip от Files-x 3.21 GB ↑ 116 ↓ 196
2019-10-24 U СеняФедя [03х01-10] (2019) SATRip от Files-x 2.92 GB ↑ 103 ↓ 88
2019-10-23 U СеняФедя [03х01-09] (2019) SATRip от Files-x 2.63 GB ↑ 61 ↓ 118

Отзывы
Зарегистрируйтесь чтобы добавить комментарий.
Обратная связь
Copyleft ©