↑↓Torrent.by
Поиск
Логин: Регистрация
Пароль: Восстановить пароль

Посыльный / Message Man (2018) BDRip-AVC от ExKinoRay | HDRezka Studio

Скачать posylnyy-message-man-2018-bdrip-avc-ot-exkinoray-hdrezka-studio.torrent
U Магнитная ссылка Размер: 742.92 MB Раздают: 42 Качают: 8 Добавлен: 2019-11-08 06:19:34
Посыльный / Message Man (2018) BDRip-AVC от ExKinoRay | HDRezka Studio

Название: Посыльный
Оригинальное название: Message Man
Год выхода: 2018
Жанр:  Боевик, триллер, криминал
Режиссер: Кори Пирсон
В ролях: Пол О’Брайэн, Захира Алека Ашари, Альфридиус Годфред, Марио Ирвинся, Агни Пратиштха Кусвардоно, Рики Мартин, Валентайн Пайен, Гэри Плант, Эрма Пратма, Пэтти Сандя

О фильме:
Приняв решение покончить с криминальным прошлым, бывший наемный убийца оседает вблизи побережья Индонезии, используя в качестве жилья маленькую яхту. Скромное и одинокое существование помогает Райану восстановить душевное спокойствие, но однажды его покой нарушает знакомство с задорным мальчиком Дони, которое быстро перерастает в дружбу. Однако вскоре размеренной жизни Райана приходит конец, когда Дони оказывается при смерти из-за действий местных бандитов. Готовясь отомстить за лучшего друга, бывший наемник неожиданно узнает, что индонезийские головорезы связаны с врагом из его прошлого.

Страна: Индонезия, Австралия, Великобритания, ОАЭ
Студия: HJ Production, Rhythmic Films, Citra Entertainment Group
Продолжительность: 01:30:24
Перевод: Профессиональный многоголосый | HDRezka Studio

Файл
Формат: MKV
Качество: BDRip-AVC
Видео: MPEG-4 AVC, 760x320, - 1075 Кбит/с
Аудио:  AAC-HE, 2 ch, - 76 Кбит/с
Субтитры: Нет


[+] MI
Общее
Уникальный идентификатор : 307958315129312842517614150591936991264 (0xE7AE9D33E45753C27DE9FB7AC6341020)
Полное имя : D:MOVIESMessage.Man.2018.BDRip-AVC.ExKinoRay.mkv
Формат : Matroska
Версия формата : Version 4 / Version 2
Размер файла : 743 Мбайт
Продолжительность : 1 ч. 30 м.
Общий поток : 1149 Кбит/сек
Дата кодирования : UTC 2019-11-07 04:45:37
Программа кодирования : mkvmerge v35.0.0 ('All The Love In The World') 64-bit
Библиотека кодирования : libebml v1.3.9 + libmatroska v1.5.2

Видео
Идентификатор : 1
Формат : AVC
Формат/Информация : Advanced Video Codec
Профиль формата : High@L4.1
Параметр CABAC формата : Да
Параметр RefFrames формата : 12 кадров
Идентификатор кодека : V_MPEG4/ISO/AVC
Продолжительность : 1 ч. 30 м.
Битрейт : 1075 Кбит/сек
Ширина : 760 пикселей
Высота : 320 пикселей
Соотношение сторон : 2,40:1
Режим частоты кадров : Постоянный
Частота кадров : 24,000 кадра/сек
Цветовое пространство : YUV
Субдискретизация насыщенности : 4:2:0
Битовая глубина : 8 бит
Тип развёртки : Прогрессивная
Бит/(Пиксели*Кадры) : 0.184
Размер потока : 693 Мбайт (93%)
Библиотека кодирования : x264 core 152 r2851kMod ba24899
Настройки программы : cabac=1 / ref=12 / deblock=1:-2:-1 / analyse=0x3:0x133 / me=umh / subme=10 / psy=1 / fade_compensate=0.00 / psy_rd=1.00:0.12 / mixed_ref=1 / me_range=32 / chroma_me=1 / trellis=2 / 8x8dct=1 / cqm=0 / deadzone=21,11 / fast_pskip=0 / chroma_qp_offset=-3 / threads=6 / lookahead_threads=1 / sliced_threads=0 / nr=0 / decimate=0 / interlaced=0 / bluray_compat=0 / constrained_intra=0 / bframes=12 / b_pyramid=2 / b_adapt=2 / b_bias=0 / direct=3 / weightb=1 / open_gop=0 / weightp=2 / keyint=240 / keyint_min=23 / scenecut=40 / intra_refresh=0 / rc_lookahead=40 / rc=2pass / mbtree=1 / bitrate=1075 / ratetol=1.0 / qcomp=0.60 / qpmin=0 / qpmax=69 / qpstep=4 / cplxblur=20.0 / qblur=0.5 / ip_ratio=1.40 / aq=3:1.00
Default : Да
Forced : Нет

Аудио
Идентификатор : 2
Формат : AAC
Формат/Информация : Advanced Audio Codec
Профиль формата : HE-AAC / LC
Идентификатор кодека : A_AAC
Продолжительность : 1 ч. 30 м.
Битрейт : 76,0 Кбит/сек
Каналы : 2 канала
Расположение каналов : Front: L R
Частота : 48,0 КГц / 24,0 КГц
Частота кадров : 23,438 кадра/сек (1024 SPF)
Метод сжатия : С потерями
Задержка видео : 31 мс.
Размер потока : 49,1 Мбайт (7%)
Язык : Russian
Default : Да
Forced : Нет

Меню
00:00:00.000 : en:
00:03:09.833 : en:
00:14:35.291 : en:
00:25:13.666 : en:
00:36:17.041 : en:
00:42:25.708 : en:
00:47:28.708 : en:
00:53:58.666 : en:
00:59:51.500 : en:
01:10:16.750 : en:
01:17:01.208 : en:
01:26:25.791 : en:



Скриншоты:
[+] Всего файлов в раздаче - 1:
Message.Man.2018.BDRip-AVC.ExKinoRay.mkv742.92 MB

Похожие раздачи по запросу - посыльный:
2019-11-11 U Посыльный / Message Man (2018) BDRip-AVC от k.e.n & MegaPeer | HDRezka Studio 1.89 GB ↑ 64 ↓ 22
2019-11-08 U Посыльный / Message Man (2018) BDRip от MegaPeer | HDRezka Studio 1.46 GB ↑ 170 ↓ 76
2019-11-07 U Посыльный / Message Man (2018) BDRip 1080p | P 1К7.87 GB ↑ 40 ↓ 46
2019-11-07 U Посыльный / Message Man (2018) BDRemux 1080p | HDRezka Studio 14.62 GB ↑ 57 ↓ 36

Отзывы
Зарегистрируйтесь чтобы добавить комментарий.
Обратная связь
Copyleft ©