↑↓Torrent.by
Поиск
Логин: Регистрация
Пароль: Восстановить пароль

Условный мент / Охта [01-15 из 24] (2019) SATRip от Files-x

Скачать uslovnyy-ment-ohta-01-15-iz-24-2019-satrip-ot-files-x.torrent
U Магнитная ссылка Размер: 7.47 GB Раздают: 11 Качают: 70 Добавлен: 2019-11-08 06:20:09
Условный мент / Охта [01-15 из 24] (2019) SATRip от Files-x

Оригинальное название: Условный мент (Охта)
Год выхода: 2019
Жанр: Детектив, приключения
Режиссер: Андрей Коршунов
В ролях: Денис Рожков, Анастасия Тюнина, Алексей Нилов, Егор Бакулин, Сергей Кошонин, Алексей Фокин, Кирилл Балобан, Ольга Богданова, Любовь Макеева, Александра Сыдорук, Сергей Фролов, Алексей Байдаков, Ольга Кирсанова-Миропольская, Евгений Карпов, Виталий Бисеров, Роман Притула, Олег Попов (II), Михаил Черняк, Евгений Антонов

О фильме:
Одновременно в Петербург приезжают бывший опер Дмитрий Рыжов, отсидевший в колонии за превышение полномочий, и капитан полиции Арина Гордеева. Рыжов устраивается работать в Жилкомсервис, чтобы зарабатывать деньги, ездить на своей аварийной машине по родному району и больше не иметь ничего общего с полицией. Гордеева становится участковым этого же района. В нём всем заправляет бизнесмен Вениамин Воронов – он же Веня Ворон. Под его «покровительством» практически все злачные точки и многие предприятия, которые за долю немалую прикрывает местный участковый капитан Тельцов...

Страна: Россия
Студия: Триикс Медиа
Продолжительность: 15 х 00:39:46
Перевод: Не требуется

Файл
Кодек: XviD
Качество: SATRip
Видео: XviD, ~ 1597 Кбит/с, 720x400, 25 кадр/с
Звук: AC3, 2 ch, 192 Кбит/с

Релиз:


[+] Содержание

1 серия "Возвращение"
2 серия "Беспокойный участок"
3 серия "Курьер поневоле"
4 серия "Обманутые мечты"
5 серия "Криптомания"
6 серия "Цугцванг"
7 серия "Эхо войны"
8 серия "На высоте"
9 серия "Сказка на ночь"
10 серия "Награда для героя"
11 серия "Холодный приём"
12 серия "Труба зовёт"
13 серия "Морской волк"
14 серия "Свидание со смертью"
15 серия "Фото на память"
16 серия "Крупный улов"
17 серия "Дороже денег"
18 серия "Рок"
19 серия "Боевая классика"
20 серия "Смертельный квест"
21 серия "Мнимый больной"
22 серия "Последняя роль"
23 серия "Лжедмитрий"
24 серия "Свадьба с приданным"



[+] MediaInfo

General
Complete name : C:01.Условный мент (Охта).(2019).SATRip.by.Nicodem.Files-x.avi
Format : AVI
Format/Info : Audio Video Interleave
File size : 512 MiB
Duration : 39mn 46s
Overall bit rate : 1 798 Kbps
Writing application : VirtualDubMod 1.5.10.3 | www.virtualdub-fr.org || (build 2550/release)
Writing library : VirtualDubMod build 2550/release

Video
ID : 0
Format : MPEG-4 Visual
Format profile : Advanced Simple@L5
Format settings, BVOP : 1
Format settings, QPel : No
Format settings, GMC : No warppoints
Format settings, Matrix : Custom
Codec ID : XVID
Codec ID/Hint : XviD
Duration : 39mn 46s
Bit rate : 1 597 Kbps
Width : 720 pixels
Height : 400 pixels
Display aspect ratio : 16:9
Frame rate : 25.000 fps
Color space : YUV
Chroma subsampling : 4:2:0
Bit depth : 8 bits
Scan type : Progressive
Compression mode : Lossy
Bits/(Pixel*Frame) : 0.222
Stream size : 454 MiB (89%)
Writing library : XviD 73

Audio
ID : 1
Format : AC-3
Format/Info : Audio Coding 3
Mode extension : CM (complete main)
Codec ID : 2000
Duration : 39mn 46s
Bit rate mode : Constant
Bit rate : 192 Kbps
Channel(s) : 2 channels
Channel positions : Front: L R
Sampling rate : 48.0 KHz
Bit depth : 16 bits
Compression mode : Lossy
Stream size : 54.6 MiB (11%)
Alignment : Split accross interleaves
Interleave, duration : 40 ms (1.00 video frame)
Interleave, preload duration : 500 ms



Скриншоты:
[+] Всего файлов в раздаче - 15:
08.Условный мент (Охта).(2019).SATRip.by.Nicodem.Files-x.avi509.11 MB
12.Условный мент (Охта).(2019).SATRip.by.Nicodem.Files-x.avi510.00 MB
04.Условный мент (Охта).(2019).SATRip.by.Nicodem.Files-x.avi510.00 MB
03.Условный мент (Охта).(2019).SATRip.by.Nicodem.Files-x.avi510.05 MB
02.Условный мент (Охта).(2019).SATRip.by.Nicodem.Files-x.avi510.09 MB
06.Условный мент (Охта).(2019).SATRip.by.Nicodem.Files-x.avi510.12 MB
09.Условный мент (Охта).(2019).SATRip.by.Nicodem.Files-x.avi510.13 MB
07.Условный мент (Охта).(2019).SATRip.by.Nicodem.Files-x.avi510.13 MB
14.Условный мент (Охта).(2019).SATRip.by.Nicodem.Files-x.avi510.13 MB
01.Условный мент (Охта).(2019).SATRip.by.Nicodem.Files-x.avi510.13 MB
15.Условный мент (Охта).(2019).SATRip.by.Nicodem.Files-x.avi510.15 MB
10.Условный мент (Охта).(2019).SATRip.by.Nicodem.Files-x.avi510.17 MB
11.Условный мент (Охта).(2019).SATRip.by.Nicodem.Files-x.avi510.18 MB
13.Условный мент (Охта).(2019).SATRip.by.Nicodem.Files-x.avi510.24 MB
05.Условный мент (Охта).(2019).SATRip.by.Nicodem.Files-x.avi510.25 MB

Показать еще раздачи по запросу условный:
Сегодня U Условный мент / Охта [01-19 из 24] (2019) SATRip от Files-x 9.53 GB ↑ 85 ↓ 346
Вчера U Условный мент [01х01-19 из 24] (2019) SATRip-AVC 9.15 GB ↑ 0 ↓ 4
Вчера U Условный мент / Охта [01-18 из 24] (2019) SATRip от Files-x 9.03 GB ↑ 54 ↓ 229
2019-11-11 U Условный мент / Охта [01-16 из 24] (2019) SATRip от Files-x 7.97 GB ↑ 188 ↓ 252
2019-11-09 U Условный мент / Охта [01-15 из 24] (2019) WEBRip от Files-x 7.72 GB ↑ 60 ↓ 136
2019-11-07 U Условный мент / Охта [01-14 из 24] (2019) SATRip от Files-x 6.97 GB ↑ 24 ↓ 113
2019-11-06 U Условный мент / Охта [01-13 из 24] (2019) SATRip от Files-x 6.48 GB ↑ 48 ↓ 150

Отзывы
Зарегистрируйтесь чтобы добавить комментарий.
Обратная связь
Copyleft ©