↑↓Torrent.by
Поиск
Логин: Регистрация
Пароль: Восстановить пароль

Полярный [01-08 из 16] (2019) HDTVRip от GeneralFilm

Скачать polyarnyy-01-08-iz-16-2019-hdtvrip-ot-generalfilm.torrent
U Магнитная ссылка Размер: 2.18 GB Раздают: 86 Качают: 194 Добавлен: 2019-11-08 14:45:30
Полярный [01-08 из 16] (2019) HDTVRip от GeneralFilm

Оригинальное название: Полярный
Год выпуска: 2019
Жанр:  Комедия
Выпущено: Россия, PREMIER Studios, Кит Медиа
Режиссер: Константин Статский, Михаил Старчак
В ролях: Михаил Пореченков, Иван Охлобыстин, Владимир Епифанцев, Катерина Шпица, Игорь Жижикин, Ян Цапник, Филипп Дьячков (II), Светлана Листова, Карина Зверева, Виктор Бычков, Александр Баширов, Сергей Чирков, Вера Строкова, Игорь Филиппов, Юрий Тузов, Александр Потапов (III), Юрий Назаров, Антон Богданов, Сергей Черданцев, Александр Мосолов

О фильме: Виктор Громов, некогда легенда криминальной Москвы по кличке Мясник, давно отошел от дел и коротает дни на загородной ферме. Но в один прекрасный день на ферме появляются его бывшие коллеги по опасному бизнесу и ставят перед фактом – Витя должен передержать на своем банковском счете воровской общак. Он вынужден согласиться. Но в тот самый день, когда Витя должен вернуть деньги, он получает удар по голове и начисто забывает пароль от банковского счета. Спасаясь бегством от бывших подельников, Витя оказывается за тысячи километров от Москвы. В маленьком северном городке под названием Полярный-17…

Качество: HDTVRip
Видео: XviD build 73, 720x352 (2.045), 25.000 fps, ~ 1450 Kbps (~ 0.225 bit/pixel)
Аудио: 48.0 kHz, AC3, 2/0 ch, 192 kbps
Продолжительность: 8 х ~ 00:25:00
Перевод: Не требуется [Русский]
Cубтитры: нет

Релиз:
[+] MediaInfo
General
Complete name               : D:RazdachiPoljarnyj.2019.HDTVRip.GeneralFilme01.Poljarnyj.avi
Format                      : AVI
Format/Info                 : Audio Video Interleave
File size                   : 279 MiB
Duration                    : 23 min 56 s
Overall bit rate            : 1 628 kb/s
Writing application         : VirtualDubMod 1.5.10.3 | www.virtualdub-fr.org || (build 2550/release)
Writing library             : VirtualDubMod build 2550/release

Video
ID                          : 0
Format                      : MPEG-4 Visual
Format profile              : Advanced Simple@L5
Format settings             : BVOP1 / Custom Matrix
Format settings, BVOP       : 1
Format settings, QPel       : No
Format settings, GMC        : No warppoints
Format settings, Matrix     : Custom
Codec ID                    : XVID
Codec ID/Hint               : XviD
Duration                    : 23 min 56 s
Bit rate                    : 1 426 kb/s
Width                       : 720 pixels
Height                      : 352 pixels
Display aspect ratio        : 2.045
Frame rate                  : 25.000 FPS
Color space                 : YUV
Chroma subsampling          : 4:2:0
Bit depth                   : 8 bits
Scan type                   : Progressive
Compression mode            : Lossy
Bits/(Pixel*Frame)          : 0.225
Stream size                 : 244 MiB (88%)
Writing library             : XviD 73

Audio
ID                          : 1
Format                      : AC-3
Format/Info                 : Audio Coding 3
Commercial name             : Dolby Digital
Codec ID                    : 2000
Duration                    : 23 min 56 s
Bit rate mode               : Constant
Bit rate                    : 192 kb/s
Channel(s)                  : 2 channels
Channel layout              : L R
Sampling rate               : 48.0 kHz
Frame rate                  : 31.250 FPS (1536 SPF)
Bit depth                   : 16 bits
Compression mode            : Lossy
Stream size                 : 32.9 MiB (12%)
Alignment                   : Split accross interleaves
Interleave, duration        : 40  ms (1.00 video frame)
Interleave, preload duratio : 500  ms
Service kind                : Complete Main



Скриншоты:
[+] Всего файлов в раздаче - 8:
e01.Poljarnyj.avi278.90 MB
e02.Poljarnyj.avi278.80 MB
e03.Poljarnyj.avi279.46 MB
e04.Poljarnyj.avi279.14 MB
e05.Poljarnyj.avi279.14 MB
e06.Poljarnyj.avi279.55 MB
e07.Poljarnyj.avi279.34 MB
e08.Poljarnyj.avi279.48 MB

Показать еще раздачи по запросу полярный:
Сегодня U Полярный [01-09 из 16] (2019) SATRip 2.72 GB ↑ 752 ↓ 1243
2019-11-09 U Полярный [01-07 из 16] (2019) WEB-DL 720p от ExKinoRay 3.78 GB ↑ 46 ↓ 81
2019-11-08 U Полярный [01-08 из 16] (2019) HDTVRip от Files-x 2.60 GB ↑ 126 ↓ 273
2019-11-08 U Полярный [01-08 из 16] (2019) HDTV 1080p от GeneralFilm 7.60 GB ↑ 100 ↓ 235
2019-11-08 U Полярный [01-08 из 16] (2019) SATRip 2.40 GB ↑ 379 ↓ 1206
2019-11-08 U Полярный [01-08 из 16] (2019) HDTV 1080i от ExKinoRay 7.49 GB ↑ 60 ↓ 142
2019-11-08 U Полярный [01-08 из 16] (2019) HDTVRip-AVC от Files-x 2.73 GB ↑ 66 ↓ 290

Отзывы
Зарегистрируйтесь чтобы добавить комментарий.
Обратная связь
Copyleft ©