↑↓Torrent.by
Поиск
Логин: Регистрация
Пароль: Восстановить пароль

Трудности выживания (2019) WEB-DLRip 720p от ExKinoRay | iTunes

Скачать trudnosti-vyzhivaniya-2019-web-dlrip-720p-ot-exkinoray-itunes.torrent
U Магнитная ссылка Размер: 2.74 GB Раздают: 66 Качают: 21 Добавлен: 2019-11-10 04:40:41
Трудности выживания (2019) WEB-DLRip 720p от ExKinoRay | iTunes

Название: Трудности выживания
Год выхода: 2019
Жанр: комедия, мелодрама
Режиссер: Евгений Торрес
В ролях: Василий Бриченко, Елизавета Кононова, Ян Цапник, Артем Маркарьян, Анна Ардова, Александр Самойленко, Николай Фоменко, Надежда Сысоева, Александр Носков, Максим Важов

Описание:   Начинающая журналистка Нина в погоне за сенсацией отправляется на необитаемый остров, где, по слухам, живет миллионер-затворник. Баркас со съёмочной группой попадает в жуткий шторм, и Нина приходит в сознание уже на пустынном берегу. К счастью, это именно тот остров, который ей был нужен, а значит, она оказалась в надежных руках молодого и симпатичного героя своего репортажа. Но только Нина еще не подозревает, что на самом деле это ее коллега, местный журналист, которому просто нужна была горячая тема, и он её выдумал. А ещё он ничего не смыслит в выживании...

Страна: Россия
Студия: 2Д Целлулоид
Продолжительность: 01:29:50
Перевод: Не требуется | iTunes

Формат: MKV
Качество: WEB-DLRip 720p
Видео: MPEG-4 AVC, 1280x536 (2.40:1), 3980 Kbit/s, 24.000 fps
Звук: 48 kHz, AC3 Dolby Digital, 3/2 (L,C,R,l,r) + LFE ch, ~384 kbps

Релиз:

Автор релиза:


[+] ОтчетМедиаИнфо
General
Unique ID                                : 231926909071083845102791784295989655664 (0xAE7B7F76F5757C5AB5ECFDA4982A3870)
Complete name                            : D:Trudnosti.vyzhivaniya.2019.WEB-DL.720p.ExKinoRay.mkv
Format                                   : Matroska
Format version                           : Version 2
File size                                : 2.74 GiB
Duration                                 : 1 h 29 min
Overall bit rate                         : 4 363 kb/s
Movie name                               : Трудности выживания (2019) from ExKinoRay
Encoded date                             : UTC 2019-11-09 04:04:43
Writing application                      : mkvmerge v5.6.0 ('Kenya Kane') built on May 27 2012 16:44:04
Writing library                          : libebml v1.2.3 + libmatroska v1.3.0

Video
ID                                       : 1
Format                                   : AVC
Format/Info                              : Advanced Video Codec
Format profile                           : High@L4.1
Format settings, CABAC                   : Yes
Format settings, ReFrames                : 12 frames
Codec ID                                 : V_MPEG4/ISO/AVC
Duration                                 : 1 h 29 min
Bit rate                                 : 3 980 kb/s
Width                                    : 1 280 pixels
Height                                   : 536 pixels
Display aspect ratio                     : 2.40:1
Frame rate mode                          : Constant
Frame rate                               : 24.000 FPS
Color space                              : YUV
Chroma subsampling                       : 4:2:0
Bit depth                                : 8 bits
Scan type                                : Progressive
Bits/(Pixel*Frame)                       : 0.242
Stream size                              : 2.44 GiB (89%)
Title                                    : Enigma
Writing library                          : x264 core 152 r2851 ba24899
Encoding settings                        : cabac=1 / ref=12 / deblock=1:-2:-2 / analyse=0x3:0x113 / me=umh / subme=11 / psy=1 / psy_rd=1.05:0.15 / mixed_ref=1 / me_range=32 / chroma_me=1 / trellis=2 / 8x8dct=1 / cqm=0 / deadzone=21,11 / fast_pskip=0 / chroma_qp_offset=-3 / threads=12 / lookahead_threads=2 / sliced_threads=0 / nr=0 / decimate=0 / interlaced=0 / bluray_compat=0 / constrained_intra=0 / bframes=9 / b_pyramid=2 / b_adapt=2 / b_bias=0 / direct=3 / weightb=1 / open_gop=0 / weightp=2 / keyint=240 / keyint_min=24 / scenecut=40 / intra_refresh=0 / rc=2pass / mbtree=0 / bitrate=3980 / ratetol=1.0 / qcomp=0.60 / qpmin=0 / qpmax=51 / qpstep=4 / cplxblur=20.0 / qblur=0.5 / ip_ratio=1.40 / pb_ratio=1.30 / aq=1:1.00
Language                                 : English
Default                                  : Yes
Forced                                   : No
Color range                              : Limited
Color primaries                          : BT.709
Transfer characteristics                 : BT.709
Matrix coefficients                      : BT.709

Audio
ID                                       : 2
Format                                   : AC-3
Format/Info                              : Audio Coding 3
Mode extension                           : CM (complete main)
Format settings, Endianness              : Big
Codec ID                                 : A_AC3
Duration                                 : 1 h 29 min
Bit rate mode                            : Constant
Bit rate                                 : 384 kb/s
Channel(s)                               : 6 channels
Channel positions                        : Front: L C R, Side: L R, LFE
Sampling rate                            : 48.0 kHz
Frame rate                               : 31.250 FPS (1536 spf)
Compression mode                         : Lossy
Stream size                              : 247 MiB (9%)
Language                                 : Russian
Default                                  : Yes
Forced                                   : No

Menu
00:00:00.000                             : ru:Глава 1
00:05:23.208                             : ru:Глава 2
00:12:10.624                             : ru:Глава 3
00:20:20.124                             : ru:Глава 4
00:26:11.790                             : ru:Глава 5
00:34:06.956                             : ru:Глава 6
00:42:28.497                             : ru:Глава 7
00:51:50.872                             : ru:Глава 8
01:00:58.788                             : ru:Глава 9
01:05:57.413                             : ru:Глава 10
01:12:12.121                             : ru:Глава 11
01:20:42.621                             : ru:Глава 12




Скриншоты:
[+] Всего файлов в раздаче - 1:
Trudnosti.vyzhivaniya.2019.WEB-DL.720p.ExKinoRay.mkv2.74 GB

Показать еще раздачи по запросу трудности:
2019-10-06 U Трудности выживания (2019) WEB-DLRip от ExKinoRay | iTunes 747.96 MB ↑ 52 ↓ 14
2019-10-05 U Трудности выживания (2019) WEB-DLRip-AVC от ExKinoRay | iTunes 743.92 MB ↑ 141 ↓ 18
2019-10-05 U Трудности выживания (2019) WEB-DLRip-AVC от Files-x | iTunes 1.46 GB ↑ 206 ↓ 31
2019-10-03 U Трудности выживания (2019) WEB-DL 1080p | iTunes 3.10 GB ↑ 35 ↓ 30
2019-10-03 U Трудности выживания (2019) WEB-DLRip от MegaPeer | iTunes 1.46 GB ↑ 287 ↓ 121
2018-10-15 U Временные трудности (2018) WEB-DLRip от Scarabey 1.39 GB ↑ 812 ↓ 112
2018-10-14 U Временные трудности (2017) WEB-DLRip от GeneralFilm 744.69 MB ↑ 170 ↓ 67

Отзывы
Зарегистрируйтесь чтобы добавить комментарий.
Обратная связь
Copyleft ©