↑↓torrent.by
Поиск
Логин: Регистрация
Пароль: Восстановить пароль

Джокер / Joker (2019) WEBRip-AVC от ExKinoRay | BadBajo

Скачать dzhoker-joker-2019-webrip-avc-ot-exkinoray-badbajo.torrent
U Магнитная ссылка Размер: 746.13 MB Раздают: 283 Качают: 94 Добавлен: 2019-11-11 18:16:26
Джокер / Joker (2019) WEBRip-AVC от ExKinoRay | BadBajo

Название: Джокер
Оригинальное название: Joker
Год выхода: 2019
Жанр:  Триллер, драма, криминал
Режиссер: Тодд Филлипс
В ролях: Хоакин Феникс, Зази Битц, Роберт Де Ниро, Брайан Тайри Генри, Брайан Коллен, Ши Уигэм, Фрэнсис Конрой, Гленн Флешлер, Бретт Каллен, Марк Мэрон, Дуглас Ходж, Джош Пэйс, Билл Кэмп, Джеймс Чикконе

О фильме:
Готэм, начало 1980-х годов. Будущий Джокер, а тогда еще неудачливый комедиант Артур Флек возвращается в Готэм-Сити после долгого отсутствия, чтобы позаботиться о больной матери и реанимировать свою несложившуюся карьеру комика. Артур Флек ухаживает за больной матерью, которая с детства учила его «ходить с улыбкой». Он живет тише воды, ниже травы, ведя жизнь совершенно невзрачную, но честную.  Неожиданно Флек узнает, что он каким-то образом связан с влиятельной семьей Уэйнов, один из членов которой позже станет супергероем Бэтменом. Постепенно Флек создает себе образ мрачного клоуна и становится преступником по прозвищу Джокер, ужасным злодеем, который держит в страхе весь Готэм.

Страна: США, Канада
Студия: BRON Studios, Creative Wealth Media Finance, DC Comics
Продолжительность: 01:55:32
Перевод: Авторский - А.Важенин [BadBajo]

Файл
Формат: MKV
Качество: WEBRip-AVC
Видео: MPEG-4 AVC, 760x412, - 825 Кбит/с
Аудио:  AAC-HE, 2 ch, - 76 Кбит/с
Субтитры: Корейские (hardsub)


[+] MI
Общее
Уникальный идентификатор : 320033774504847484445895057985429838022 (0xF0C44350EA4145F9F6056389A94018C6)
Полное имя : D:MOVIESJoker.2019.AVC.ExKinoRay.mkv
Формат : Matroska
Версия формата : Version 4 / Version 2
Размер файла : 746 Мбайт
Продолжительность : 1 ч. 55 м.
Общий поток : 902 Кбит/сек
Дата кодирования : UTC 2019-11-11 03:18:32
Программа кодирования : mkvmerge v35.0.0 ('All The Love In The World') 64-bit
Библиотека кодирования : libebml v1.3.9 + libmatroska v1.5.2

Видео
Идентификатор : 1
Формат : AVC
Формат/Информация : Advanced Video Codec
Профиль формата : High@L4.1
Параметр CABAC формата : Да
Параметр RefFrames формата : 12 кадров
Идентификатор кодека : V_MPEG4/ISO/AVC
Продолжительность : 1 ч. 55 м.
Битрейт : 825 Кбит/сек
Ширина : 760 пикселей
Высота : 412 пикселей
Соотношение сторон : 1,85:1
Режим частоты кадров : Постоянный
Частота кадров : 23,976 (24000/1001) кадра/сек
Цветовое пространство : YUV
Субдискретизация насыщенности : 4:2:0
Битовая глубина : 8 бит
Тип развёртки : Прогрессивная
Бит/(Пиксели*Кадры) : 0.110
Размер потока : 682 Мбайт (91%)
Библиотека кодирования : x264 core 152 r2851 ba24899
Настройки программы : cabac=1 / ref=12 / deblock=1:-3:-3 / analyse=0x3:0x133 / me=umh / subme=11 / psy=1 / psy_rd=1.00:0.12 / mixed_ref=1 / me_range=32 / chroma_me=1 / trellis=2 / 8x8dct=1 / cqm=0 / deadzone=21,11 / fast_pskip=0 / chroma_qp_offset=-3 / threads=6 / lookahead_threads=1 / sliced_threads=0 / nr=0 / decimate=0 / interlaced=0 / bluray_compat=0 / constrained_intra=0 / bframes=12 / b_pyramid=2 / b_adapt=2 / b_bias=0 / direct=3 / weightb=1 / open_gop=0 / weightp=2 / keyint=240 / keyint_min=23 / scenecut=40 / intra_refresh=0 / rc=2pass / mbtree=0 / bitrate=825 / ratetol=1.0 / qcomp=0.60 / qpmin=0 / qpmax=69 / qpstep=4 / cplxblur=20.0 / qblur=0.5 / ip_ratio=1.40 / pb_ratio=1.30 / aq=1:1.00
Default : Да
Forced : Нет

Аудио
Идентификатор : 2
Формат : AAC
Формат/Информация : Advanced Audio Codec
Профиль формата : HE-AAC / LC
Идентификатор кодека : A_AAC
Продолжительность : 1 ч. 55 м.
Битрейт : 76,0 Кбит/сек
Каналы : 2 канала
Расположение каналов : Front: L R
Частота : 48,0 КГц / 24,0 КГц
Частота кадров : 23,438 кадра/сек (1024 SPF)
Метод сжатия : С потерями
Задержка видео : 31 мс.
Размер потока : 62,9 Мбайт (8%)
Default : Да
Forced : Нет



Скриншоты:
[+] Всего файлов в раздаче - 1:
Joker.2019.AVC.ExKinoRay.mkv746.13 MB

Показать еще раздачи по запросу джокер:
2020-01-21 U Джокер / Joker (2019) BDRip 720p от k.e.n & MegaPeer | D, P, A | Лицензия 5.59 GB ↑ 3 ↓ 44
2020-01-13 U Джокер / Joker (2019) BDRip от HQ-ViDEO | D | Лицензия 2.18 GB ↑ 38 ↓ 24
2020-01-08 U Джокер / Joker (2019) BDRip-AVC | Лицензия 748.91 MB ↑ 38 ↓ 5
2019-12-31 U Джокер / Joker (2019) BDRip 720p | D, P, A 5.13 GB ↑ 34 ↓ 10
2019-12-29 U Джокер / Joker (2019) BDRip 720p от Scarabey | Лицензия 4.75 GB ↑ 200 ↓ 26
2019-12-28 U Джокер / Joker (2019) BDRip-AVC от Generalfilm | Лицензия 1.64 GB ↑ 261 ↓ 75
2019-12-28 U Джокер / Joker (2019) HDRip от Scarabey | Лицензия 1.44 GB ↑ 256 ↓ 16

Отзывы
Зарегистрируйтесь чтобы добавить комментарий.
Обратная связь
Copyleft ©