↑↓torrent.by
Поиск
Логин: Регистрация
Пароль: Восстановить пароль

Проклятие «Мэри» / Mary (2019) WEB-DLRip | iTunes

Скачать proklyatie-meri-mary-2019-web-dlrip-itunes.torrent
U Магнитная ссылка Размер: 742.73 MB Раздают: 191 Качают: 58 Добавлен: 2019-11-12 18:10:43
Проклятие «Мэри» / Mary (2019) WEB-DLRip | iTunes

Название: Проклятие «Мэри»
Оригинальное название: Mary
Год выхода: 2019
Жанр: ужасы
Режиссер: Майкл Гои
В ролях: Гэри Олдман, Дженнифер Эспозито, Эмили Мортимер, Оуэн Тиг, Стефани Скотт, Майкл Лэндис, Мануэль Рульфо, Натали Жан, Хлоя Перрин, Клер Бирн, Кэтрин Келли

О фильме: Глава семейства Дэвид покупает яхту на аукционе. Он надеется начать новый бизнес по морским перевозкам, и яхта «Мэри» должна стать счастливым билетом для него и его семьи. Но чем дальше в море уходит лодка, тем более жуткие вещи начинают происходить на борту.

Выпущено: США / Tucker Tooley Entertainment
Продолжительность: 01:24:59
Озвучивание: Дублированное | iTunes

Файл
Формат: AVI (XviD)
Качество: WEB-DLRip
Видео: 688x288 (2.39:1), 23.976 fps, XviD MPEG-4 ~1084 kbps avg, 0.23 bit/pixel
Аудио: 48 kHz, MPEG Layer 3, 2 ch, ~128.00 kbps avg
Субтитры: Нет


[+] MediaInfo:
Общее
Полное имя : C:Proklyatie.Meri.2019.WEB-DLRip.740.mb.avi
Формат : AVI
Формат/Информация : Audio Video Interleave
Размер файла : 743 Мбайт
Продолжительность : 1 ч. 24 м.
Общий поток : 1222 Кбит/сек
Программа кодирования : VirtualDubMod 1.5.10.3 | (build 2550/release)
Библиотека кодирования : VirtualDubMod build 2550/release

Видео
Идентификатор : 0
Формат : MPEG-4 Visual
Профиль формата : Advanced Simple@L5
Параметр BVOP формата : 2
Параметр QPel формата : Нет
Параметр GMC формата : Без точки перехода
Параметр матрицы формата : Default (MPEG)
Режим смешивания : Сжатый битовый поток
Идентификатор кодека : XVID
Идентификатор кодека/Подсказка : XviD
Продолжительность : 1 ч. 24 м.
Битрейт : 1085 Кбит/сек
Ширина : 688 пикселей
Высота : 288 пикселей
Соотношение сторон : 2,40:1
Частота кадров : 23,976 кадра/сек
Цветовое пространство : YUV
Субдискретизация насыщенности : 4:2:0
Битовая глубина : 8 бит
Тип развёртки : Прогрессивная
Метод сжатия : С потерями
Бит/(Пиксели*Кадры) : 0.228
Размер потока : 659 Мбайт (89%)
Библиотека кодирования : XviD 1.2.1 (UTC 2008-12-04)

Аудио
Идентификатор : 1
Формат : MPEG Audio
Версия формата : Version 1
Профиль формата : Layer 3
Идентификатор кодека : 55
Идентификатор кодека/Подсказка : MP3
Продолжительность : 1 ч. 24 м.
Вид битрейта : Постоянный
Битрейт : 128 Кбит/сек
Каналы : 2 канала
Частота : 48,0 КГц
Метод сжатия : С потерями
Размер потока : 77,8 Мбайт (10%)
Выравнивание : Соединение по промежуткам
Продолжительность промежутка : 42 мс. (1,00 видеокадр)
Время предзагрузки промежутка : 504 мс.
Библиотека кодирования : LAME3.99r
Настройки программы : -m s -V 4 -q 2 -lowpass 17 -b 128



Скриншоты:
[+] Всего файлов в раздаче - 1:
Proklyatie.Meri.2019.WEB-DLRip.740.mb.avi742.73 MB

Показать еще раздачи по запросу проклятие:
2019-12-08 U Проклятие крови / Blood Craft (2019) WEB-DLRip | iTunes 746.70 MB ↑ 51 ↓ 9
2019-12-07 U Проклятие крови / Blood Craft (2019) WEB-DLRip | iTunes 1.46 GB ↑ 142 ↓ 46
2019-11-16 U Проклятие «Мэри» / Mary (2019) BDRip от MegaPeer | iTunes 1.46 GB ↑ 119 ↓ 56
2019-11-12 U Проклятие «Мэри» / Mary (2019) WEB-DLRip | iTunes 1.44 GB ↑ 255 ↓ 38
2019-10-14 U Проклятие Аннабель 3 / Annabelle Comes Home (2019) BDRip от MegaPeer | Лицензия 1.46 GB ↑ 195 ↓ 23
2019-10-13 U Московские тайны. Проклятие Мастера [S05] (2019) WEB-DLRip от Files-x 1.12 GB ↑ 175 ↓ 31
2019-10-11 U Московские тайны. Проклятие мастера [05х01-02 из 02] (2019) SATRip-AVC 1.03 GB ↑ 47 ↓ 16

Отзывы
Зарегистрируйтесь чтобы добавить комментарий.
Обратная связь
Copyleft ©