↑↓torrent.by
Поиск
Логин: Регистрация
Пароль: Восстановить пароль

Джокер / Joker (2019) WEBRip 1080p | Line | UKR

Скачать dzhoker-joker-2019-webrip-1080p-line-ukr.torrent
U Магнитная ссылка Размер: 3.95 GB Раздают: 63 Качают: 8 Добавлен: 2019-11-13 04:35:49
Джокер / Joker (2019) WEBRip 1080p | Line | UKR

Название: Джокер
Оригинальное название: Joker
Год выхода: 2019
Жанр: Триллер, драма, криминал

Режиссер: Тодд Филлипс

В ролях: Хоакин Феникс, Роберт Де Ниро, Зази Битц, Фрэнсис Конрой, Бретт Каллен, Шей Уигэм, Билл Кэмп, Гленн Флешлер, Ли Гилл, Джош Пэйс

О фильме: Готэм, начало 1980-х годов. Комик Артур Флек живет с больной матерью, которая с детства учит его «ходить с улыбкой». Пытаясь нести в мир хорошее и дарить людям радость, Артур сталкивается с человеческой жестокостью и постепенно приходит к выводу, что этот мир получит от него не добрую улыбку, а ухмылку злодея Джокера.

Страна: США, Канада
Продолжительность: 01:55:32
Перевод: Профессиональный (дублированный) [Line, Украинский]

Файл
Кодек: x.264
Качество: WEBRip 1080p
Видео: AVC, 1920x1040 (1.85:1), 30.000 fps, 4 500 kb/s
Аудио 1: AC3, 48.0 kHz, 2 ch, 192 kb/s | UKR (DUB / Line)
Аудио 2: AC3, 48.0 kHz, 2 ch, 192 kb/s | ENG
Субтитры: Корейские (вшитые), английские


[+] MI
General
Complete name                            : Joker (2019) WEBRip 1080p [Ukr_Eng] [ViDeO_Hurtom].mkv
Format                                   : Matroska
Format version                           : Version 4
File size                                : 3.95 GiB
Duration                                 : 1 h 55 min
Overall bit rate                         : 4 892 kb/s
Encoded date                             : UTC 2019-11-11 11:37:05
Writing application                      : mkvmerge v30.1.0 ('Forever And More') 64-bit
Writing library                          : libebml v1.3.6 + libmatroska v1.4.9
Cover                                    : Yes
Attachments                              : cover.jpg

Video
ID                                       : 1
Format                                   : AVC
Format/Info                              : Advanced Video Codec
Format profile                           : High@L4.1
Format settings                          : CABAC / 4 Ref Frames
Format settings, CABAC                   : Yes
Format settings, RefFrames               : 4 frames
Codec ID                                 : V_MPEG4/ISO/AVC
Duration                                 : 1 h 55 min
Bit rate                                 : 4 500 kb/s
Width                                    : 1 920 pixels
Height                                   : 1 040 pixels
Display aspect ratio                     : 1.85:1
Frame rate mode                          : Constant
Frame rate                               : 30.000 FPS
Color space                              : YUV
Chroma subsampling                       : 4:2:0
Bit depth                                : 8 bits
Scan type                                : Progressive
Bits/(Pixel*Frame)                       : 0.075
Stream size                              : 3.64 GiB (92%)
Writing library                          : x264 core 148 r2795M aaa9aa8
Encoding settings                        : cabac=1 / ref=4 / deblock=1:0:0 / analyse=0x3:0x113 / me=umh / subme=9 / psy=1 / psy_rd=1.00:0.00 / mixed_ref=1 / me_range=16 / chroma_me=1 / trellis=2 / 8x8dct=1 / cqm=0 / deadzone=21,11 / fast_pskip=1 / chroma_qp_offset=-2 / threads=72 / lookahead_threads=6 / sliced_threads=0 / nr=0 / decimate=1 / interlaced=0 / bluray_compat=0 / constrained_intra=0 / bframes=3 / b_pyramid=2 / b_adapt=2 / b_bias=0 / direct=3 / weightb=1 / open_gop=0 / weightp=2 / keyint=250 / keyint_min=25 / scenecut=40 / intra_refresh=0 / rc_lookahead=50 / rc=abr / mbtree=1 / bitrate=4500 / ratetol=1.0 / qcomp=0.60 / qpmin=0 / qpmax=69 / qpstep=4 / ip_ratio=1.40 / aq=1:1.00
Default                                  : Yes
Forced                                   : No

Audio #1
ID                                       : 2
Format                                   : AC-3
Format/Info                              : Audio Coding 3
Commercial name                          : Dolby Digital
Codec ID                                 : A_AC3
Duration                                 : 1 h 55 min
Bit rate mode                            : Constant
Bit rate                                 : 192 kb/s
Channel(s)                               : 2 channels
Channel layout                           : L R
Sampling rate                            : 48.0 kHz
Frame rate                               : 31.250 FPS (1536 SPF)
Bit depth                                : 16 bits
Compression mode                         : Lossy
Stream size                              : 159 MiB (4%)
Title                                    : AC3 2.0 192 Kbps
Language                                 : Ukrainian
Default                                  : Yes
Forced                                   : No

Audio #2
ID                                       : 3
Format                                   : AC-3
Format/Info                              : Audio Coding 3
Commercial name                          : Dolby Digital
Codec ID                                 : A_AC3
Duration                                 : 1 h 55 min
Bit rate mode                            : Constant
Bit rate                                 : 192 kb/s
Channel(s)                               : 2 channels
Channel layout                           : L R
Sampling rate                            : 48.0 kHz
Frame rate                               : 31.250 FPS (1536 SPF)
Bit depth                                : 16 bits
Compression mode                         : Lossy
Stream size                              : 159 MiB (4%)
Title                                    : AC3 2.0 192 Kbps
Language                                 : English
Default                                  : No
Forced                                   : No

Text
ID                                       : 4
Format                                   : UTF-8
Codec ID                                 : S_TEXT/UTF8
Codec ID/Info                            : UTF-8 Plain Text
Duration                                 : 1 h 55 min
Bit rate                                 : 45 b/s
Count of elements                        : 1187
Stream size                              : 38.6 KiB (0%)
Title                                    : Full
Language                                 : English
Default                                  : Yes
Forced                                   : No
Скріншоти



Скриншоты:
[+] Всего файлов в раздаче - 1:
Joker (2019) WEBRip 1080p [Ukr_Eng] [ViDeO_Hurtom].mkv3.95 GB

Показать еще раздачи по запросу джокер:
2020-01-21 U Джокер / Joker (2019) BDRip 720p от k.e.n & MegaPeer | D, P, A | Лицензия 5.59 GB ↑ 3 ↓ 44
2020-01-13 U Джокер / Joker (2019) BDRip от HQ-ViDEO | D | Лицензия 2.18 GB ↑ 38 ↓ 24
2020-01-08 U Джокер / Joker (2019) BDRip-AVC | Лицензия 748.91 MB ↑ 38 ↓ 5
2019-12-31 U Джокер / Joker (2019) BDRip 720p | D, P, A 5.13 GB ↑ 34 ↓ 10
2019-12-29 U Джокер / Joker (2019) BDRip 720p от Scarabey | Лицензия 4.75 GB ↑ 186 ↓ 26
2019-12-28 U Джокер / Joker (2019) BDRip-AVC от Generalfilm | Лицензия 1.64 GB ↑ 249 ↓ 76
2019-12-28 U Джокер / Joker (2019) HDRip от Scarabey | Лицензия 1.44 GB ↑ 248 ↓ 16

Отзывы
Зарегистрируйтесь чтобы добавить комментарий.
Обратная связь
Copyleft ©