↑↓torrent.by
Поиск
Логин: Регистрация
Пароль: Восстановить пароль

После свадьбы / After the Wedding (2019) BDRip 1080p от селезень | iTunes

Скачать posle-svadby-after-the-wedding-2019-bdrip-1080p-ot-selezen-itunes.torrent
U Магнитная ссылка Размер: 8.20 GB Раздают: 303 Качают: 94 Добавлен: 2019-11-13 18:13:47
После свадьбы / After the Wedding (2019) BDRip 1080p от селезень | iTunes

Название: После свадьбы
Оригинальное название: After the Wedding
Год выхода: 2019
Жанр: Драма
Режиссер: Барт Фрейндлих
В ролях: Мишель Уильямс, Джулианна Мур, Билли Крадап, Уилл Чейз, Дорис Маккарти, Эбби Куинн, Эжи Робертсон, Алекс Исола, Алекс Кранмер, Иса Дэвис, Сьюзэн Блэкуэлл

О фильме: Изабель посвятила свою жизнь помощи другим. Она узнает, что женщина, возглавляющая многомиллионную корпорацию, готова пожертвовать ей огромную сумму. Их встреча в Нью-Йорке проходит успешно, но все меняется, когда Изабель случайно встречает ее мужа. Она еще не знает, что кто-то начал игру чужими судьбами, в которой правда окажется опаснее лжи...

Страна: США
Студия: Ingenious Media, Joel B. Michaels Productions, Riverstone Pictures
Продолжительность: 01:52:07
Перевод: Дублированный | iTunes

Качество: BDRip 1080p
Видео: MPEG-4 AVC, 1920x804, 9279 Kbit/s, 23.976 fps
Аудио #01: 48 kHz, AC3, 5.1, 384 Kbps | iTunes | RUS |
Аудио #02: 48 kHz, AC3, 2.0, 160 Kbps | iTunes | UKR |
Аудио #03: 48 kHz, AC3, 5.1, 640 Kbps | Оригинал |  ENG |
Субтитры: Русские (Full), английские

Релиз:


[+] MI
General
Unique ID                   : 260856393604917542775630917356794438261 (0xC43F1D2CAB796252A1924BFCB1D86275)
Complete name               : D:Video111After.the.Wedding.2019.BDRip.1080p.seleZen.mkv
Format                      : Matroska
Format version              : Version 4
File size                   : 8.20 GiB
Duration                    : 1 h 52 min
Overall bit rate            : 10.5 Mb/s
Movie name                  : After the Wedding 2019 from селезень
Encoded date                : UTC 2019-11-13 06:45:33
Writing application         : mkvmerge v39.0.0 ('In The Waiting Line') 64-bit
Writing library             : libebml v1.3.9 + libmatroska v1.5.2

Video
ID                          : 1
Format                      : AVC
Format/Info                 : Advanced Video Codec
Format profile              : High@L4.1
Format settings             : CABAC / 4 Ref Frames
Format settings, CABAC      : Yes
Format settings, Reference  : 4 frames
Codec ID                    : V_MPEG4/ISO/AVC
Duration                    : 1 h 52 min
Bit rate                    : 9 279 kb/s
Width                       : 1 920 pixels
Height                      : 804 pixels
Display aspect ratio        : 2.40:1
Frame rate mode             : Constant
Frame rate                  : 23.976 (24000/1001) FPS
Color space                 : YUV
Chroma subsampling          : 4:2:0
Bit depth                   : 8 bits
Scan type                   : Progressive
Bits/(Pixel*Frame)          : 0.251
Stream size                 : 7.27 GiB (89%)
Title                       : CHD
Writing library             : x264 core 157 r2867+150 7e91e0e t_mod_Custom_2 [8-bit@all X86_64]
Encoding settings           : cabac=1 / ref=4 / deblock=1:-3:-3 / analyse=0x3:0x133 / me=umh / subme=11 / psy=1 / fade_compensate=0.00 / psy_rd=0.90:0.10 / mixed_ref=1 / me_range=64 / chroma_me=1 / trellis=2 / 8x8dct=1 / cqm=0 / deadzone=21,11 / fast_pskip=0 / chroma_qp_offset=-4 / threads=25 / lookahead_threads=4 / sliced_threads=0 / nr=0 / decimate=1 / interlaced=0 / bluray_compat=0 / constrained_intra=0 / fgo=0 / bframes=8 / b_pyramid=2 / b_adapt=2 / b_bias=0 / direct=3 / weightb=1 / open_gop=0 / weightp=2 / keyint=250 / keyint_min=23 / scenecut=40 / intra_refresh=0 / rc_lookahead=60 / rc=crf / mbtree=0 / crf=17.0000 / qcomp=0.70 / qpmin=0:0:0 / qpmax=69:69:69 / qpstep=4 / vbv_maxrate=35000 / vbv_bufsize=35000 / crf_max=0.0 / nal_hrd=none / filler=0 / ip_ratio=1.40 / pb_ratio=1.30 / aq=3:1.00 / aq-sensitivity=10.00 / aq-factor=1.00:1.00:1.00 / aq2=0 / aq3=0
Language                    : English
Default                     : Yes
Forced                      : No

Audio #1
ID                          : 2
Format                      : AC-3
Format/Info                 : Audio Coding 3
Commercial name             : Dolby Digital
Codec ID                    : A_AC3
Duration                    : 1 h 51 min
Bit rate mode               : Constant
Bit rate                    : 384 kb/s
Channel(s)                  : 6 channels
Channel layout              : L R C LFE Ls Rs
Sampling rate               : 48.0 kHz
Frame rate                  : 31.250 FPS (1536 SPF)
Bit depth                   : 16 bits
Compression mode            : Lossy
Stream size                 : 307 MiB (4%)
Title                       : iTunes
Language                    : Russian
Service kind                : Complete Main
Default                     : Yes
Forced                      : Yes

Audio #2
ID                          : 3
Format                      : AC-3
Format/Info                 : Audio Coding 3
Commercial name             : Dolby Digital
Codec ID                    : A_AC3
Duration                    : 1 h 51 min
Bit rate mode               : Constant
Bit rate                    : 160 kb/s
Channel(s)                  : 2 channels
Channel layout              : L R
Sampling rate               : 48.0 kHz
Frame rate                  : 31.250 FPS (1536 SPF)
Bit depth                   : 16 bits
Compression mode            : Lossy
Stream size                 : 128 MiB (2%)
Title                       : iTunes
Language                    : Ukrainian
Service kind                : Complete Main
Default                     : No
Forced                      : No

Audio #3
ID                          : 4
Format                      : AC-3
Format/Info                 : Audio Coding 3
Commercial name             : Dolby Digital
Codec ID                    : A_AC3
Duration                    : 1 h 52 min
Bit rate mode               : Constant
Bit rate                    : 640 kb/s
Channel(s)                  : 6 channels
Channel layout              : L R C LFE Ls Rs
Sampling rate               : 48.0 kHz
Frame rate                  : 31.250 FPS (1536 SPF)
Bit depth                   : 16 bits
Compression mode            : Lossy
Stream size                 : 513 MiB (6%)
Title                       : Original
Language                    : English
Service kind                : Complete Main
Default                     : No
Forced                      : No

Text #1
ID                          : 5
Format                      : UTF-8
Codec ID                    : S_TEXT/UTF8
Codec ID/Info               : UTF-8 Plain Text
Duration                    : 1 h 45 min
Bit rate                    : 88 b/s
Count of elements           : 1356
Stream size                 : 68.9 KiB (0%)
Title                       : Full
Language                    : Russian
Default                     : No
Forced                      : No

Text #2
ID                          : 6
Format                      : UTF-8
Codec ID                    : S_TEXT/UTF8
Codec ID/Info               : UTF-8 Plain Text
Duration                    : 1 h 40 min
Bit rate                    : 57 b/s
Count of elements           : 1213
Stream size                 : 42.0 KiB (0%)
Title                       : Full
Language                    : English
Default                     : No
Forced                      : No

Menu
00:00:00.000                : en:Chapter 01
00:08:05.026                : en:Chapter 02
00:15:13.996                : en:Chapter 03
00:22:06.992                : en:Chapter 04
00:30:10.642                : en:Chapter 05
00:38:53.581                : en:Chapter 06
00:47:39.690                : en:Chapter 07
00:53:23.074                : en:Chapter 08
01:01:21.219                : en:Chapter 09
01:03:27.011                : en:Chapter 10
01:08:04.497                : en:Chapter 11
01:13:56.056                : en:Chapter 12
01:17:27.517                : en:Chapter 13
01:23:40.306                : en:Chapter 14
01:31:48.461                : en:Chapter 15
01:38:51.967                : en:Chapter 16



Скриншоты:
[+] Всего файлов в раздаче - 1:
After.the.Wedding.2019.BDRip.1080p.seleZen.mkv8.20 GB

Показать еще раздачи по запросу после:
2020-02-19 U После полуночи / After Midnight (2019) WEBRip 1080p | LakeFilms 1.44 GB ↑ 37 ↓ 10
2020-01-05 U Рожденный после смерти / Strange But True (2019) HDRip от Portablius | iTunes 744.93 MB ↑ 144 ↓ 42
2020-01-05 U Рожденный после смерти / Strange But True (2019) BDRip-AVC | iTunes 1К1.43 GB ↑ 214 ↓ 32
2020-01-05 U Рожденный после смерти / Strange But True (2019) BDRip 1080p | iTunes 7.32 GB ↑ 619 ↓ 358
2020-01-05 U Рожденный после смерти / Strange But True (2019) BDRip | iTunes 1.45 GB ↑ 936 ↓ 325
2019-12-29 U Разведчики. Война после войны [02х01-06 из 06] (2008) HDTVRip-AVC 3.89 GB ↑ 90 ↓ 16
2019-12-02 U Млечин Леонид - До и после смерти Сталина (2019) FB2 1.44 MB ↑ 144 ↓ 3

Отзывы
Зарегистрируйтесь чтобы добавить комментарий.
Обратная связь
Copyleft ©