↑↓Torrent.by
Поиск
Логин: Регистрация
Пароль: Восстановить пароль

Игра с огнем / Burn (2019) BDRip 1080p от селезень | iTunes

Скачать igra-s-ognem-burn-2019-bdrip-1080p-ot-selezen-itunes.torrent
U Магнитная ссылка Размер: 7.73 GB Раздают: 59 Качают: 55 Добавлен: 2019-11-14 10:56:24
Игра с огнем / Burn (2019) BDRip 1080p от селезень | iTunes

Название: Игра с огнем
Оригинальное название: Burn
Год выхода: 2019
Жанр: Триллер
Режиссер: Майк Ган
В ролях: Тильда Кобэм-Херви, Джош Хатчерсон, Сьюки Уотерхаус, Гарри Шам мл., Шайло Фернандес, Джим Девоти, Джон Д. Хикман, Стив Гарфанти, Винтер-Ли Холланд, Уэйн Пайл, Кит Леонард, Анхель Валле мл.

О фильме: История развернется вокруг работницы заправки Мелинды, которая страдает от одиночества и завидует своей более успешной коллеге Шейле. Когда мелкий преступник Билли врывается на заправку в надежде украсть немного наличных, Мелинда видит в этом отличный шанс избавиться от опостылевшей напарницы.

Страна: США
Студия: Yale Productions, Hopscotch Pictures, Particular Crowd
Продолжительность: 01:28:21
Перевод: Дублированный | iTunes

Качество: BDRip 1080p
Видео: MPEG-4 AVC, 1920x1038, 11.5 Mbit/s, 23.976 fps
Аудио #01: 48 kHz, AC3, 5.1, 384 Kbps | iTunes | RUS |
Аудио #02: 48 kHz, AC3, 5.1, 640 Kbps | Оригинал |  ENG |
Субтитры: Русские (Full [Enigma]), английские

Релиз:


[+] MI
General
Unique ID                   : 173809167102995868639911436510909779556 (0x82C26D8E5863AB514DA34C1A18354E64)
Complete name               : D:Video111Burn.2019.BDRip.1080p.seleZen.mkv
Format                      : Matroska
Format version              : Version 4
File size                   : 7.73 GiB
Duration                    : 1 h 28 min
Overall bit rate            : 12.5 Mb/s
Movie name                  : Burn 2019 from селезень
Encoded date                : UTC 2019-11-13 16:59:16
Writing application         : mkvmerge v40.0.0 ('Old Town Road + Pony') 64-bit
Writing library             : libebml v1.3.9 + libmatroska v1.5.2

Video
ID                          : 1
Format                      : AVC
Format/Info                 : Advanced Video Codec
Format profile              : High@L4.1
Format settings             : CABAC / 4 Ref Frames
Format settings, CABAC      : Yes
Format settings, Reference  : 4 frames
Codec ID                    : V_MPEG4/ISO/AVC
Duration                    : 1 h 28 min
Bit rate                    : 11.5 Mb/s
Width                       : 1 920 pixels
Height                      : 1 038 pixels
Display aspect ratio        : 1.85:1
Frame rate mode             : Constant
Frame rate                  : 23.976 (24000/1001) FPS
Color space                 : YUV
Chroma subsampling          : 4:2:0
Bit depth                   : 8 bits
Scan type                   : Progressive
Bits/(Pixel*Frame)          : 0.241
Stream size                 : 7.09 GiB (92%)
Title                       : Encoded by seleZen
Writing library             : x264 core 148 r2705kMod 3f5ed56
Encoding settings           : cabac=1 / ref=4 / deblock=1:-2:-2 / analyse=0x3:0x113 / me=umh / subme=11 / psy=1 / fade_compensate=0.00 / psy_rd=1.00:0.02 / mixed_ref=1 / me_range=32 / chroma_me=1 / trellis=2 / 8x8dct=1 / cqm=0 / deadzone=21,11 / fast_pskip=0 / chroma_qp_offset=-3 / threads=24 / lookahead_threads=6 / sliced_threads=0 / nr=0 / decimate=0 / interlaced=0 / bluray_compat=0 / constrained_intra=0 / fgo=0 / bframes=10 / b_pyramid=2 / b_adapt=2 / b_bias=0 / direct=3 / weightb=1 / open_gop=0 / weightp=2 / keyint=240 / keyint_min=23 / scenecut=40 / intra_refresh=0 / rc_lookahead=50 / rc=2pass / mbtree=0 / bitrate=11500 / ratetol=1.0 / qcomp=0.60 / qpmin=0 / qpmax=51 / qpstep=4 / cplxblur=20.0 / qblur=0.5 / vbv_maxrate=50000 / vbv_bufsize=62500 / nal_hrd=none / filler=0 / ip_ratio=1.40 / pb_ratio=1.30 / aq=3:0.80
Language                    : English
Default                     : Yes
Forced                      : No

Audio #1
ID                          : 2
Format                      : AC-3
Format/Info                 : Audio Coding 3
Commercial name             : Dolby Digital
Codec ID                    : A_AC3
Duration                    : 1 h 28 min
Bit rate mode               : Constant
Bit rate                    : 384 kb/s
Channel(s)                  : 6 channels
Channel layout              : L R C LFE Ls Rs
Sampling rate               : 48.0 kHz
Frame rate                  : 31.250 FPS (1536 SPF)
Bit depth                   : 16 bits
Compression mode            : Lossy
Stream size                 : 243 MiB (3%)
Title                       : iTunes
Language                    : Russian
Service kind                : Complete Main
Default                     : Yes
Forced                      : Yes

Audio #2
ID                          : 3
Format                      : AC-3
Format/Info                 : Audio Coding 3
Commercial name             : Dolby Digital
Codec ID                    : A_AC3
Duration                    : 1 h 28 min
Bit rate mode               : Constant
Bit rate                    : 640 kb/s
Channel(s)                  : 6 channels
Channel layout              : L R C LFE Ls Rs
Sampling rate               : 48.0 kHz
Frame rate                  : 31.250 FPS (1536 SPF)
Bit depth                   : 16 bits
Compression mode            : Lossy
Stream size                 : 404 MiB (5%)
Title                       : Original
Language                    : English
Service kind                : Complete Main
Default                     : No
Forced                      : No

Text #1
ID                          : 4
Format                      : UTF-8
Codec ID                    : S_TEXT/UTF8
Codec ID/Info               : UTF-8 Plain Text
Duration                    : 1 h 20 min
Bit rate                    : 86 b/s
Count of elements           : 1099
Stream size                 : 50.9 KiB (0%)
Title                       : Full [Enigma]
Language                    : Russian
Default                     : No
Forced                      : No

Text #2
ID                          : 5
Format                      : UTF-8
Codec ID                    : S_TEXT/UTF8
Codec ID/Info               : UTF-8 Plain Text
Duration                    : 1 h 20 min
Bit rate                    : 54 b/s
Count of elements           : 1107
Stream size                 : 32.1 KiB (0%)
Title                       : Full
Language                    : English
Default                     : No
Forced                      : No

Text #3
ID                          : 6
Format                      : UTF-8
Codec ID                    : S_TEXT/UTF8
Codec ID/Info               : UTF-8 Plain Text
Duration                    : 1 h 25 min
Bit rate                    : 58 b/s
Count of elements           : 1321
Stream size                 : 36.7 KiB (0%)
Title                       : SDH
Language                    : English
Default                     : No
Forced                      : No

Menu
00:00:00.000                : en:Глава 01
00:11:26.603                : en:Глава 02
00:24:30.177                : en:Глава 03
00:37:16.609                : en:Глава 04
00:52:20.137                : en:Глава 05
01:05:51.239                : en:Глава 06
01:18:34.543                : en:Глава 07
01:21:29.093                : en:Глава 08



Скриншоты:
[+] Всего файлов в раздаче - 1:
Burn.2019.BDRip.1080p.seleZen.mkv7.73 GB

Показать еще раздачи по запросу игра:
2019-11-14 U Игра с огнем / Burn (2019) BDRip-AVC от ExKinoRay | iTunes 1.68 GB ↑ 76 ↓ 13
2019-11-14 U Игра с огнем / Burn (2019) BDRip от MegaPeer | iTunes 1.42 GB ↑ 155 ↓ 27
2019-11-07 U Игра с огнем / Burn (2019) WEB-DLRip от MegaPeer | iTunes 1.46 GB ↑ 170 ↓ 77
2019-11-07 U Игра Ганнибала / Nomis / Night Hunter (2018) BDRip 720p от селезень | D, P | iTunes 4.04 GB ↑ 70 ↓ 44
2019-11-07 U Игра Ганнибала / Nomis / Night Hunter (2018) BDRip 1080p от селезень | D, P | iTunes 8.17 GB ↑ 53 ↓ 42
2019-11-07 U Игра с огнем / Burn (2019) WEB-DL 1080p от селезень | iTunes 5.86 GB ↑ 50 ↓ 40
2019-11-07 U Игра с огнем / Burn (2019) WEB-DLRip-AVC от ExKinoRay | iTunes 1.56 GB ↑ 74 ↓ 31

Отзывы
Зарегистрируйтесь чтобы добавить комментарий.
Обратная связь
Copyleft ©