↑↓torrent.by
Поиск
Логин: Регистрация
Пароль: Восстановить пароль

Клаус / Klaus (2019) WEBRip 720p | Невафильм

Скачать klaus-2019-webrip-720p-nevafilm.torrent
U Магнитная ссылка Размер: 2.07 GB Раздают: 109 Качают: 28 Добавлен: 2019-11-16 06:23:01
Клаус / Klaus (2019) WEBRip 720p | Невафильм

Название: Клаус
Оригинальное название: Klaus
Год выхода: 2019
Жанр: Мультфильм, фэнтези, комедия, приключения, семейный, полнометражный
Режиссер: Серджо Паблос
В ролях: Джоан Кьюсак, Рашида Джонс, Дж.К. Симмонс, Джейсон Шварцман, Такер Мик, Мила Бренер, Сидни Брауэр, Финн Карр, Бэйли Рей Фендерсон, Джаэден Беттенкурт, Тедди Блум, Кендалл Джой Холл, Джулиан Зейн, Хейли Эрмида, Люсиан Перес

О фильме:
Когда Джеспер получает звание худшего студента почтовой академии, его отправляют на ледяной арктический остров, враждующие жители которого редко обмениваются словом, не говоря уже о письмах. Джеспер вот-вот готов опустить руки, но неожиданно находит друга в лице местной учительницы Альвы и знакомится с Клаусом, загадочным плотником, который живет в хижине, полной игрушек ручной работы. Вместе они возвращают смех и радость жителям острова, а вместе с тем и добрые рождественские традиции.

Страна: Испания
Студия: Comic Animations, Atresmedia Cine, SPA Studios
Продолжительность: 01:38:03
Перевод: Дублированный | Невафильм

Файл
Кодек: AVC
Качество: WEBRip 720p | Klaus.2019.720p.NF.WEBRip.DDP5.1.Atmos.x264-NTG
Видео: MPEG-4 AVC, 1780 Kбит/с, 1280x720, 24.000 кадр/с
Звук: ► Без Рекламы!
Аудио #1: Русский (AC3, 6 ch, 640 Кбит/с, 48.0 KHz) Профессиональный (дублированный) Невафильм
Аудио #1: Английский (AC3, 6 ch, 640 Кбит/с, 48.0 KHz)
Субтитры: Русские (Forced, Full), английские, испанские, французские, немецкие, итальянские, португальские | Нетфликс
Трейлер




[+] MediaInfo
Источник: Klaus.2019.720p.NF.WEBRip.DDP5.1.Atmos.x264-NTG
General
Unique ID                      : 248999923358467745656163507980791644402 (0xBB53A40F0C624B3C8539189A1BE700F2)
Complete name                  : Klaus.2019.NF.WEBRip.720p.mkv
Format                         : Matroska
Format version                 : Version 4
File size                      : 2.07 GiB
Duration                       : 1 h 38 min
Overall bit rate mode          : Variable
Overall bit rate               : 3 023 kb/s
Movie name                     : Release for TeamHD
Encoded date                   : UTC 2019-11-15 15:19:25
Writing application            : mkvmerge v7.1.0 ('Good Love') 64bit built on Jul 27 2014 13:06:55
Writing library                : libebml v1.3.0 + libmatroska v1.4.1

Video
ID                             : 1
Format                         : AVC
Format/Info                    : Advanced Video Codec
Format profile                 : Main@L3.1
Format settings                : CABAC / 3 Ref Frames
Format settings, CABAC         : Yes
Format settings, Reference fra : 3 frames
Codec ID                       : V_MPEG4/ISO/AVC
Duration                       : 1 h 38 min
Bit rate mode                  : Variable
Bit rate                       : 1 780 kb/s
Maximum bit rate               : 2 670 kb/s
Width                          : 1 280 pixels
Height                         : 720 pixels
Display aspect ratio           : 16:9
Frame rate mode                : Constant
Frame rate                     : 24.000 FPS
Color space                    : YUV
Chroma subsampling             : 4:2:0
Bit depth                      : 8 bits
Scan type                      : Progressive
Bits/(Pixel*Frame)             : 0.080
Stream size                    : 1.19 GiB (58%)
Writing library                : x264 core 148 r2715 7e75228
Encoding settings              : cabac=1 / ref=3 / deblock=1:0:0 / analyse=0x1:0x111 / me=umh / subme=10 / psy=1 / psy_rd=1.00:0.00 / mixed_ref=1 / me_range=24 / chroma_me=1 / trellis=2 / 8x8dct=0 / cqm=0 / deadzone=21,11 / fast_pskip=1 / chroma_qp_offset=-2 / threads=8 / lookahead_threads=1 / sliced_threads=0 / nr=0 / decimate=1 / interlaced=0 / bluray_compat=0 / stitchable=1 / constrained_intra=0 / bframes=2 / b_pyramid=0 / b_adapt=2 / b_bias=0 / direct=3 / weightb=1 / open_gop=0 / weightp=2 / keyint=250 / keyint_min=24 / scenecut=0 / intra_refresh=0 / rc_lookahead=48 / rc=2pass / mbtree=1 / bitrate=1780 / ratetol=1.0 / qcomp=0.50 / qpmin=6 / qpmax=51 / qpstep=4 / cplxblur=20.0 / qblur=0.5 / vbv_maxrate=2670 / vbv_bufsize=3560 / nal_hrd=vbr / filler=0 / ip_ratio=1.40 / aq=1:1.00
Default                        : Yes
Forced                         : No

Audio #1
ID                             : 2
Format                         : AC-3
Format/Info                    : Audio Coding 3
Commercial name                : Dolby Digital
Codec ID                       : A_AC3
Duration                       : 1 h 38 min
Bit rate mode                  : Constant
Bit rate                       : 640 kb/s
Channel(s)                     : 6 channels
Channel layout                 : L R C LFE Ls Rs
Sampling rate                  : 48.0 kHz
Frame rate                     : 31.250 FPS (1536 SPF)
Compression mode               : Lossy
Stream size                    : 449 MiB (21%)
Language                       : Russian
Service kind                   : Complete Main
Default                        : Yes
Forced                         : No

Audio #2
ID                             : 3
Format                         : AC-3
Format/Info                    : Audio Coding 3
Commercial name                : Dolby Digital
Codec ID                       : A_AC3
Duration                       : 1 h 38 min
Bit rate mode                  : Constant
Bit rate                       : 640 kb/s
Channel(s)                     : 6 channels
Channel layout                 : L R C LFE Ls Rs
Sampling rate                  : 48.0 kHz
Frame rate                     : 31.250 FPS (1536 SPF)
Compression mode               : Lossy
Stream size                    : 449 MiB (21%)
Language                       : English
Service kind                   : Complete Main
Default                        : No
Forced                         : No

Text #1
ID                             : 4
Format                         : UTF-8
Codec ID                       : S_TEXT/UTF8
Codec ID/Info                  : UTF-8 Plain Text
Duration                       : 1 h 36 min
Bit rate                       : 0 b/s
Count of elements              : 13
Stream size                    : 402 Bytes (0%)
Title                          : Forced
Language                       : Russian
Default                        : Yes
Forced                         : No

Text #2
ID                             : 5
Format                         : UTF-8
Codec ID                       : S_TEXT/UTF8
Codec ID/Info                  : UTF-8 Plain Text
Duration                       : 1 h 36 min
Bit rate                       : 81 b/s
Count of elements              : 1219
Stream size                    : 57.9 KiB (0%)
Title                          : Full
Language                       : Russian
Default                        : No
Forced                         : No

Text #3
ID                             : 6
Format                         : UTF-8
Codec ID                       : S_TEXT/UTF8
Codec ID/Info                  : UTF-8 Plain Text
Duration                       : 1 h 32 min
Bit rate                       : 63 b/s
Count of elements              : 1352
Stream size                    : 42.8 KiB (0%)
Language                       : English
Default                        : No
Forced                         : No

Text #4
ID                             : 7
Format                         : UTF-8
Codec ID                       : S_TEXT/UTF8
Codec ID/Info                  : UTF-8 Plain Text
Duration                       : 1 h 32 min
Bit rate                       : 72 b/s
Count of elements              : 1634
Stream size                    : 49.2 KiB (0%)
Title                          : SDH
Language                       : English
Default                        : No
Forced                         : No

Text #5
ID                             : 8
Format                         : UTF-8
Codec ID                       : S_TEXT/UTF8
Codec ID/Info                  : UTF-8 Plain Text
Duration                       : 1 h 29 min
Bit rate                       : 56 b/s
Count of elements              : 1044
Stream size                    : 37.1 KiB (0%)
Language                       : German
Default                        : No
Forced                         : No

Text #6
ID                             : 9
Format                         : UTF-8
Codec ID                       : S_TEXT/UTF8
Codec ID/Info                  : UTF-8 Plain Text
Duration                       : 1 h 36 min
Bit rate                       : 50 b/s
Count of elements              : 1192
Stream size                    : 35.8 KiB (0%)
Language                       : French
Default                        : No
Forced                         : No

Text #7
ID                             : 10
Format                         : UTF-8
Codec ID                       : S_TEXT/UTF8
Codec ID/Info                  : UTF-8 Plain Text
Duration                       : 1 h 36 min
Bit rate                       : 51 b/s
Count of elements              : 1242
Stream size                    : 36.4 KiB (0%)
Language                       : Spanish
Default                        : No
Forced                         : No

Text #8
ID                             : 11
Format                         : UTF-8
Codec ID                       : S_TEXT/UTF8
Codec ID/Info                  : UTF-8 Plain Text
Duration                       : 1 h 36 min
Bit rate                       : 44 b/s
Count of elements              : 1041
Stream size                    : 31.8 KiB (0%)
Language                       : Italian
Default                        : No
Forced                         : No

Text #9
ID                             : 12
Format                         : UTF-8
Codec ID                       : S_TEXT/UTF8
Codec ID/Info                  : UTF-8 Plain Text
Duration                       : 1 h 36 min
Bit rate                       : 49 b/s
Count of elements              : 1128
Stream size                    : 34.9 KiB (0%)
Language                       : Portuguese
Default                        : No
Forced                         : No



Скриншоты:
[+] Всего файлов в раздаче - 1:
Klaus.2019.NF.WEBRip.720p.mkv2.07 GB

Показать еще раздачи по запросу клаус:
2020-02-08 U Клаус / Klaus (2019) WEB-DL 1080p | Невафильм 2.86 GB ↑ 38 ↓ 38
2019-11-18 U Клаус / Klaus (2019) WEB-DLRip от Scarabey | Невафильм 1.44 GB ↑ 72 ↓ 12
2019-11-17 U Клаус / Klaus (2019) WEB-DLRip от OlLanDGroup | Невафильм 746.37 MB ↑ 126 ↓ 15
2019-11-16 U Клаус / Klaus (2019) WEB-DLRip-AVC от OlLanDGroup | Невафильм 1К742.52 MB ↑ 119 ↓ 13
2019-11-16 U Клаус / Klaus (2019) WEB-DLRip от Twister & ExKinoRay | Невафильм 1.47 GB ↑ 111 ↓ 25
2019-11-16 U Клаус / Klaus (2019) WEB-DLRip | Невафильм 1.46 GB ↑ 237 ↓ 45
2019-11-16 U Клаус / Klaus (2019) WEB-DL 1080p | Невафильм 3.63 GB ↑ 407 ↓ 104

Отзывы
Зарегистрируйтесь чтобы добавить комментарий.
Обратная связь
Copyleft ©