↑↓Torrent.by
Поиск
Логин: Регистрация
Пароль: Восстановить пароль

КВН-2019. Кубок мэра Москвы [16.11] (2019) HDTVRip от GeneralFilm

Скачать kvn-2019-kubok-mera-moskvy-16-11-hdtvrip-ot-generalfilm.torrent
U Магнитная ссылка Размер: 1.63 GB Раздают: 241 Качают: 141 Добавлен: 2019-11-16 20:23:23
КВН-2019. Кубок мэра Москвы [16.11] (2019) HDTVRip от GeneralFilm

Оригинальное название: КВН-2019. Кубок мэра Москвы
Год выпуска: 2019
Жанр:  Юмор
Выпущено: Россия, ОАО "Первый канал"
Ведущий: Александр Масляков

О фильме: КВН – соревнование в индивидуальном и командном остроумии – на сегодняшний день представляет собой самостоятельный жанр сценического искусства. История КВН берет свое начало в 1957 году, являясь поначалу викториной под названием «Вечер Веселых Вопросов», а уже с 1961 года передача стала выходить в эфир под названием «КВН». Поначалу передача планировалась как соревнование эрудитов, со временем же, претерпевая метаморфозы, она стала приобретать явно юмористическую окраску содержания. Помимо того, что это была единственная молодежная юмористическая передача своего времени, у ее истоков стояли и известнейшие телеведущие страны – сначала сам автор программы Альберт Аксельрод в паре с юной Светланой Жильцовой, впоследствии Аксельрода сменил тогда еще студент-четверокурсник Александр Масляков. Сегодня это уже не совсем та передача, что приковывала внимание зрителей десятилетия назад, это проект, который в поиске новых идей и находок меняется вместе с нашей жизнью и, как показывает жизнь, процесс его совершенствования просто бесконечен.

Качество: HDTVRip
Видео: XviD, 1795 Кбит/с, 720х400, 25 кадр/с
Аудио: Русский (AC3, 2 ch, 192 Кбит/с)
Продолжительность: 01:56:59
Перевод: Не требуется
Субтитры: нет

Релиз:
[+] MediaInfo

Общее
Полное имя                               : D:KVN-2019. Kubok mjera Moskvy.HDTVRip.GeneralFilm.avi
Формат                                   : AVI
Формат/Информация                        : Audio Video Interleave
Размер файла                             : 1,63 Гбайт
Продолжительность                        : 1 ч. 56 м.
Общий поток                              : 1998 Кбит/сек

Видео
Идентификатор                            : 0
Формат                                   : MPEG-4 Visual
Профиль формата                          : Advanced Simple@L5
Параметр BVOP формата                    : 1
Параметр QPel формата                    : Нет
Параметр GMC формата                     : Без точки перехода
Параметр матрицы формата                 : Выборочная
Идентификатор кодека                     : XVID
Идентификатор кодека/Подсказка           : XviD
Продолжительность                        : 1 ч. 56 м.
Битрейт                                  : 1795 Кбит/сек
Ширина                                   : 720 пикселей
Высота                                   : 400 пикселей
Соотношение сторон                       : 16:9
Частота кадров                           : 25,000 кадров/сек
Цветовое пространство                    : YUV
Субдискретизация насыщенности            : 4:2:0
Битовая глубина                          : 8 бит
Тип развёртки                            : Прогрессивная
Метод сжатия                             : С потерями
Бит/(Пиксели*Кадры)                      : 0.249
Размер потока                            : 1,47 Гбайт (90%)
Библиотека кодирования                   : XviD 1.2.1 (UTC 2008-12-04)

Аудио
Идентификатор                            : 1
Формат                                   : AC-3
Формат/Информация                        : Audio Coding 3
Расширение режима                        : CM (complete main)
Параметр Endianness формата              : Big
Идентификатор кодека                     : 2000
Продолжительность                        : 1 ч. 56 м.
Вид битрейта                             : Постоянный
Битрейт                                  : 192 Кбит/сек
Каналы                                   : 2 канала
Расположение каналов                     : Front: L R
Частота                                  : 48,0 КГц
Битовая глубина                          : 16 бит
Метод сжатия                             : С потерями
Размер потока                            : 161 Мбайт (10%)
Выравнивание                             : Соединение по промежуткам
Продолжительность промежутка             : 32  мс. (0,80 видеокадр)




[+] Команды

«Такая история» (ОГУ им. Тургенева, Орел)
«НАТЕ» (Станица Брюховецкая)
«Наполеон Динамит» (Тюменская область)
«Будем дружить семьями» (Москва)
и многочисленные гости.



Скриншоты:
[+] Всего файлов в раздаче - 1:
KVN-2019. Kubok mjera Moskvy.HDTVRip.GeneralFilm.avi1.63 GB

Похожие раздачи по запросу - кубок:
2019-11-17 U КВН-2019. Кубок мэра Москвы [16.11] (2019) HDTV 1080i от GeneralFilm 9.77 GB ↑ 247 ↓ 82
2019-11-16 U КВН-2019. День рождения КВН (Кубок мэра Москвы 2019) [16.11] (2019) SATRip 1.56 GB ↑ 1059 ↓ 209
2019-09-15 U КВН-2019. Высшая лига. Летний Кубок - 2019 [14.09] (2019) SATRip 1.55 GB ↑ 140 ↓ 32
2019-09-15 U КВН-2019. Летний кубок в Сочи [14.09] (2019) HDTVRip от GeneralFilm 1К1.62 GB ↑ 485 ↓ 133
2019-07-04 U Футбол. Кубок Америки 2019. Copa America. 1/2 финала. Бразилия - Аргентина [03.07] (2019) IPTVRip 1.53 GB ↑ 77 ↓ 10

Отзывы
Зарегистрируйтесь чтобы добавить комментарий.
Обратная связь
Copyleft ©