↑↓Torrent.by
Поиск
Логин: Регистрация
Пароль: Восстановить пароль

КВН-2019. Кубок мэра Москвы [16.11] (2019) HDTV 1080i от GeneralFilm

Скачать kvn-2019-kubok-mera-moskvy-16-11-hdtv-1080i-ot-generalfilm.torrent
U Магнитная ссылка Размер: 9.77 GB Раздают: 247 Качают: 82 Добавлен: 2019-11-17 11:08:06
КВН-2019. Кубок мэра Москвы [16.11] (2019) HDTV 1080i от GeneralFilm

Оригинальное название: КВН-2019. Кубок мэра Москвы
Год выпуска: 2019
Жанр:  Юмор
Выпущено: Россия, ОАО "Первый канал"
Ведущий: Александр Масляков

О фильме: КВН – соревнование в индивидуальном и командном остроумии – на сегодняшний день представляет собой самостоятельный жанр сценического искусства. История КВН берет свое начало в 1957 году, являясь поначалу викториной под названием «Вечер Веселых Вопросов», а уже с 1961 года передача стала выходить в эфир под названием «КВН». Поначалу передача планировалась как соревнование эрудитов, со временем же, претерпевая метаморфозы, она стала приобретать явно юмористическую окраску содержания. Помимо того, что это была единственная молодежная юмористическая передача своего времени, у ее истоков стояли и известнейшие телеведущие страны – сначала сам автор программы Альберт Аксельрод в паре с юной Светланой Жильцовой, впоследствии Аксельрода сменил тогда еще студент-четверокурсник Александр Масляков. Сегодня это уже не совсем та передача, что приковывала внимание зрителей десятилетия назад, это проект, который в поиске новых идей и находок меняется вместе с нашей жизнью и, как показывает жизнь, процесс его совершенствования просто бесконечен.

Качество: HDTV (1080i)
Видео: MPEG-TS AVC, 10.8 Мбит/с, 1920x1080, 25 кадр/с
Аудио: Русский  (AC3, 2 ch, 384 Кбит/с), (MP2, 2 ch, 192 Кбит/с)
Продолжительность: 01:56:59
Перевод: Не требуется
Субтитры: нет

Релиз:
[+] MediaInfo

Общее
Идентификатор                            : 1 (0x1)
Полное имя                               : D:ЗаписьKVN-2019. Kubok mjera Moskvy.HDTV(1080i).GeneralFilm.ts
Формат                                   : MPEG-TS
Размер файла                             : 9,77 Гбайт
Продолжительность                        : 1 ч. 56 м.
Режим общего битрейта                    : Переменный
Общий поток                              : 12,0 Мбит/сек

Видео
Идентификатор                            : 1904 (0x770)
Идентификатор меню                       : 80 (0x50)
Формат                                   : AVC
Формат/Информация                        : Advanced Video Codec
Профиль формата                          : High@L4.0
Параметр CABAC формата                   : Да
Параметр ReFrames формата                : 3 кадра
Идентификатор кодека                     : 27
Продолжительность                        : 1 ч. 56 м.
Битрейт                                  : 10,8 Мбит/сек
Ширина                                   : 1920 пикселей
Высота                                   : 1080 пикселей
Соотношение сторон                       : 16:9
Частота кадров                           : 25,000 кадров/сек
Стандарт вещания                         : Component
Цветовое пространство                    : YUV
Субдискретизация насыщенности            : 4:2:0
Битовая глубина                          : 8 бит
Тип развёртки                            : Чересстрочная
Порядок развёртки                        : Верхнее поле первое
Бит/(Пиксели*Кадры)                      : 0.208
Размер потока                            : 8,81 Гбайт (90%)
Основные цвета                           : BT.709
Характеристики трансфера                 : BT.709
Коэффициенты матрицы                     : BT.709

Аудио #1
Идентификатор                            : 2904 (0xB58)
Идентификатор меню                       : 80 (0x50)
Формат                                   : AC-3
Формат/Информация                        : Audio Coding 3
Расширение режима                        : CM (complete main)
Параметр Endianness формата              : Big
Идентификатор кодека                     : 6
Продолжительность                        : 1 ч. 56 м.
Вид битрейта                             : Постоянный
Битрейт                                  : 384 Кбит/сек
Каналы                                   : 6 каналов
Расположение каналов                     : Front: L C R, Side: L R, LFE
Частота                                  : 48,0 КГц
Битовая глубина                          : 16 бит
Метод сжатия                             : С потерями
Задержка видео                           : -120 мс.
Размер потока                            : 321 Мбайт (3%)
Язык                                     : Russian

Аудио #2
Идентификатор                            : 2905 (0xB59)
Идентификатор меню                       : 80 (0x50)
Формат                                   : MPEG Audio
Версия формата                           : Version 1
Профиль формата                          : Layer 2
Идентификатор кодека                     : 3
Продолжительность                        : 1 ч. 56 м.
Вид битрейта                             : Постоянный
Битрейт                                  : 192 Кбит/сек
Каналы                                   : 2 канала
Частота                                  : 48,0 КГц
Метод сжатия                             : С потерями
Задержка видео                           : -120 мс.
Размер потока                            : 161 Мбайт (2%)
Язык                                     : Russian




[+] Команды

«Такая история» (ОГУ им. Тургенева, Орел)
«НАТЕ» (Станица Брюховецкая)
«Наполеон Динамит» (Тюменская область)
«Будем дружить семьями» (Москва)
и многочисленные гости.



Скриншоты:
[+] Всего файлов в раздаче - 1:
KVN-2019. Kubok mjera Moskvy.HDTV(1080i).GeneralFilm.ts9.77 GB

Похожие раздачи по запросу - кубок:
2019-11-16 U КВН-2019. Кубок мэра Москвы [16.11] (2019) HDTVRip от GeneralFilm 1.63 GB ↑ 222 ↓ 140
2019-11-16 U КВН-2019. День рождения КВН (Кубок мэра Москвы 2019) [16.11] (2019) SATRip 1.56 GB ↑ 1053 ↓ 209
2019-09-15 U КВН-2019. Высшая лига. Летний Кубок - 2019 [14.09] (2019) SATRip 1.55 GB ↑ 140 ↓ 32
2019-09-15 U КВН-2019. Летний кубок в Сочи [14.09] (2019) HDTVRip от GeneralFilm 1К1.62 GB ↑ 482 ↓ 133
2019-07-04 U Футбол. Кубок Америки 2019. Copa America. 1/2 финала. Бразилия - Аргентина [03.07] (2019) IPTVRip 1.53 GB ↑ 75 ↓ 10

Отзывы
Зарегистрируйтесь чтобы добавить комментарий.
Обратная связь
Copyleft ©