↑↓Torrent.by
Поиск
Логин: Регистрация
Пароль: Восстановить пароль

BBC: Битва экзопланет / Battle Of The Exoplanets (2018) HDTVRip 720p | P2

Скачать bbc-bitva-ekzoplanet-battle-of-the-exoplanets-2018-hdtvrip-720p-p2.torrent
U Магнитная ссылка Размер: 1.52 GB Раздают: 52 Качают: 18 Добавлен: 2019-11-17 14:22:46
BBC: Битва экзопланет / Battle Of The Exoplanets (2018) HDTVRip 720p | P2

Название: Битва экзопланет
Оригинальное название: Battle Of The Exoplanets
Год выхода: 2018
Жанр: Документальный, научно-популярный, космос
Режиссер: Джордж Харрис

О фильме:
Звездная система Trappist-1 находится на расстоянии 40 световых лет от Солнца. Здесь обитают семь планет земного типа. Учёные совершают захватывающие открытия. Эти дальновидные энтузиасты используют данные для экстраполяции целых миров.

Страна: Великобритания
Студия: BBC Studios
Продолжительность: 00:51:58
Перевод: Профессиональный (двухголосый закадровый) SDI Media

Файл
Кодек: AVC/H.264
Качество: HDTVRip 720p
Видео: 1280x720 (16:9), 25 fps, AVC (Н.264), High@L4,1, 4000 kbps avg, 0.174 bit/pixel
Звук: Русский 48 kHz, AC3 Dolby Digital, 2/0 (L,R) ch, ~192.00 kbps avg

Семпл

Релиз от: kyba
[+] MediaInfo
Complete name               : F:НаладкиНовая папкаБитва экзопланет_720p.mkv
Format                      : Matroska
Format version              : Version 4
File size                   : 1.52 GiB
Duration                    : 51 min 58 s
Overall bit rate            : 4 194 kb/s
Encoded date                : UTC 2019-11-17 02:58:56
Writing application         : mkvmerge v6.6.0 ('The Edge Of The In Between') built on Dec  1 2013 17:55:00
Writing library             : libebml v1.3.0 + libmatroska v1.4.1

Video
ID                          : 1
Format                      : AVC
Format/Info                 : Advanced Video Codec
Format profile              : High@L4.1
Format settings             : CABAC / 9 Ref Frames
Format settings, CABAC      : Yes
Format settings, Reference  : 9 frames
Codec ID                    : V_MPEG4/ISO/AVC
Duration                    : 51 min 58 s
Bit rate                    : 4 000 kb/s
Width                       : 1 280 pixels
Height                      : 720 pixels
Display aspect ratio        : 16:9
Frame rate mode             : Constant
Frame rate                  : 25.000 FPS
Color space                 : YUV
Chroma subsampling          : 4:2:0
Bit depth                   : 8 bits
Scan type                   : Progressive
Bits/(Pixel*Frame)          : 0.174
Stream size                 : 1.42 GiB (93%)
Writing library             : x264 core 157 r2935 545de2f
Encoding settings           : cabac=1 / ref=9 / deblock=1:-3:-3 / analyse=0x3:0x133 / me=umh / subme=9 / psy=1 / psy_rd=1.00:0.00 / mixed_ref=1 / me_range=32 / chroma_me=1 / trellis=2 / 8x8dct=1 / cqm=0 / deadzone=21,11 / fast_pskip=1 / chroma_qp_offset=-2 / threads=12 / lookahead_threads=2 / sliced_threads=0 / nr=0 / decimate=0 / interlaced=0 / bluray_compat=0 / constrained_intra=0 / bframes=9 / b_pyramid=2 / b_adapt=2 / b_bias=0 / direct=3 / weightb=1 / open_gop=0 / weightp=2 / keyint=250 / keyint_min=25 / scenecut=40 / intra_refresh=0 / rc_lookahead=50 / rc=2pass / mbtree=1 / bitrate=4000 / ratetol=1.0 / qcomp=0.60 / qpmin=0 / qpmax=69 / qpstep=4 / cplxblur=20.0 / qblur=0.5 / ip_ratio=1.40 / aq=1:1.00
Language                    : English
Default                     : Yes
Forced                      : No

Audio
ID                          : 2
Format                      : AC-3
Format/Info                 : Audio Coding 3
Commercial name             : Dolby Digital
Codec ID                    : A_AC3
Duration                    : 51 min 58 s
Bit rate mode               : Constant
Bit rate                    : 192 kb/s
Channel(s)                  : 2 channels
Channel layout              : L R
Sampling rate               : 48.0 kHz
Frame rate                  : 31.250 FPS (1536 SPF)
Bit depth                   : 16 bits
Compression mode            : Lossy
Stream size                 : 71.4 MiB (5%)
Language                    : Russian
Service kind                : Complete Main
Default                     : Yes
Forced                      : No



Скриншоты:
[+] Всего файлов в раздаче - 1:
Битва экзопланет_720p.mkv1.52 GB

Показать еще раздачи по запросу битва:
2019-11-24 U Битва экстрасенсов [20х01-09] (2019) SATRip 8.31 GB ↑ 68 ↓ 514
2019-11-20 U Битва за потерянную планету / Battle for the Lost Planet / Galaxy (1986) BDRip-AVC | P 2.18 GB ↑ 33 ↓ 9
2019-11-17 U Битва экстрасенсов [20х01-08] (2019) SATRip 7.37 GB ↑ 73 ↓ 512
2019-11-04 U Битва экстрасенсов [20х01-06] (2019) WEBRip 720p от Files-x 9.07 GB ↑ 27 ↓ 74
2019-11-03 U Битва экстрасенсов [20х01-06] (2019) SATRip 5.51 GB ↑ 98 ↓ 558
2019-10-16 U Освобождая Родину. Битва за Кpым: крах Готенланда [01-02 из 02] (2019) SATRip 1,014.54 MB ↑ 53 ↓ 14
2019-10-13 U Битва (2019) WEB-DLRip-AVC от ExKinoRay | iTunes 746.08 MB ↑ 78 ↓ 7

Отзывы
Зарегистрируйтесь чтобы добавить комментарий.
Обратная связь
Copyleft ©