↑↓Torrent.by
Поиск
Логин: Регистрация
Пароль: Восстановить пароль

Рюриковичи [01-06 из 08] (2019) WEB-DLRip от GeneralFilm

Скачать ryurikovichi-01-06-iz-08-2019-web-dlrip-ot-generalfilm.torrent
U Магнитная ссылка Размер: 3.27 GB Раздают: 39 Качают: 47 Добавлен: 2019-11-18 07:57:17
Рюриковичи [01-06 из 08] (2019) WEB-DLRip от GeneralFilm

Оригинальное название: Рюриковичи
Год выпуска: 2019
Жанр:  Документальный, драма
Выпущено: Россия, Star Media
Режиссер: Максим Беспалый
В ролях: Иван Петков, Дмитрий Могучев, Владимир Кузнецов (IX), Светлана Бакулина, Валентина Нейморовец, Александр Карпенко (II), Андрей Камин, Пётр Лойко, Алексей Фролов (II), Евгений Капитонов, Денис Беспалый, Вадим Мельников, Алексей Артамонов, Алина Никольская, Алексей Белозерцев, Дмитрий Белозерцев, Юрий Васильев (VII), Александр Койгеров, Сергей Сулим, Алексей Видов, Дин Махаматдинов, Василий Гузов, Артур Федынко, Даниил Эльдаров, Николай Прилуцкий, Станислав Концевич, Александр Баргман, Олег Ребров, Валерия Ватаман, Виктор Бугаков, Егор Антонов (II), Дмитрий Гудим, Михаил Осипов, Алексей Ингелевич, Николай Мухин, Виталий Хаджиев, Юрий Стебаков

О фильме: Цикл фильмов в жанре документальной драмы. Это одна из старейших династий Европы. Князья и цари из дома Рюриковичей правили страной непрерывно на протяжении 740 лет. За это время Русское государство, ими созданное, выросло до размеров 5,4 миллиона квадратных километров и стало больше всей Европы. История династии началась одновременно с историей государства. Однако начало это скрыто в густом тумане легенд. Мы никогда не узнаем, кем на самом деле был легендарный варяг Рюрик, и был ли он реальным историческим лицом. Зато мы знаем, кем были его потомки. Среди них были поэты и воины, святые и разбойники, законодатели и братоубийцы. Одни восходили на престол по праву рождения, другие – по приглашению, третьи – по трупам родных братьев, но законной их власть над огромной страной делала сама принадлежность к правящему дому Рюриковичей. В истории династии было все – яростная борьба за власть и высокое самопожертвование, завоевания и потери, интриги и новые законы, пепел пожарищ и создание мировых шедевров, любовь и предательство. Рюриковичи укрепляли, обороняли, расширяли своё государство: кто-то – огнем и мечом, кто-то – миром и договором. Во время их правления сформировалась русской нация и возник феномен русской культуры. Именно Рюриковичи создали ту самую страну - трансконтинентальную полиэтничную державу, - в которой мы сегодня живём.

Качество: WEB-DLRip
Видео: XviD build 73, 720x400 (16:9), 25.000 fps, ~ 1400 Kbps (~ 0.195 bit/pixel)
Аудио: 48.0 kHz, AC3, 2/0 ch, 192 kbps
Продолжительность: 6 х ~ 00:49:00
Перевод: Не требуется [Русский]
Cубтитры: нет

Релиз:
[+] MediaInfo
General
Complete name               : D:RazdachiRjurikovichi.2019.WEB-DLRip.GeneralFilme01.Rjurikovichi.avi
Format                      : AVI
Format/Info                 : Audio Video Interleave
File size                   : 557 MiB
Duration                    : 48 min 53 s
Overall bit rate            : 1 593 kb/s
Writing application         : VirtualDubMod 1.5.10.3 | www.virtualdub-fr.org || (build 2550/release)
Writing library             : VirtualDubMod build 2550/release

Video
ID                          : 0
Format                      : MPEG-4 Visual
Format profile              : Advanced Simple@L5
Format settings             : BVOP1 / Custom Matrix
Format settings, BVOP       : 1
Format settings, QPel       : No
Format settings, GMC        : No warppoints
Format settings, Matrix     : Custom
Codec ID                    : XVID
Codec ID/Hint               : XviD
Duration                    : 48 min 53 s
Bit rate                    : 1 392 kb/s
Width                       : 720 pixels
Height                      : 400 pixels
Display aspect ratio        : 16:9
Frame rate                  : 25.000 FPS
Color space                 : YUV
Chroma subsampling          : 4:2:0
Bit depth                   : 8 bits
Scan type                   : Progressive
Compression mode            : Lossy
Bits/(Pixel*Frame)          : 0.193
Stream size                 : 487 MiB (87%)
Writing library             : XviD 73

Audio
ID                          : 1
Format                      : AC-3
Format/Info                 : Audio Coding 3
Commercial name             : Dolby Digital
Codec ID                    : 2000
Duration                    : 48 min 53 s
Bit rate mode               : Constant
Bit rate                    : 192 kb/s
Channel(s)                  : 2 channels
Channel layout              : L R
Sampling rate               : 48.0 kHz
Frame rate                  : 31.250 FPS (1536 SPF)
Compression mode            : Lossy
Stream size                 : 67.2 MiB (12%)
Alignment                   : Split across interleaves
Interleave, duration        : 40  ms (1.00 video frame)
Interleave, preload duratio : 500  ms
Service kind                : Complete Main



Скриншоты:
[+] Всего файлов в раздаче - 6:
e01.Rjurikovichi.avi557.30 MB
e02.Rjurikovichi.avi557.14 MB
e03.Rjurikovichi.avi557.47 MB
e04.Rjurikovichi.avi557.33 MB
e05.Rjurikovichi.avi557.21 MB
e06.Rjurikovichi.avi557.46 MB

Похожие раздачи по запросу - рюриковичи:
2019-11-25 U Рюриковичи [01-08 из 08] (2019) WEB-DLRip от GeneralFilm 4.35 GB ↑ 298 ↓ 208
2019-11-11 U Рюриковичи [01-04 из 08] (2019) WEB-DLRip от GeneralFilm 2.18 GB ↑ 129 ↓ 55
2019-11-05 U Рюриковичи [01-02 из 08] (2019) WEB-DLRip от GeneralFilm 1.09 GB ↑ 109 ↓ 26

Отзывы
Зарегистрируйтесь чтобы добавить комментарий.
Обратная связь
Copyleft ©